Скачать через торрент музыку Jytte Pilloni & Blue Sun - Its All Money Johnny - 1976 бесплатно без регистрации torrent

Если у вас наблюдаются проблемы со скриншотами, переходом по ссылками, скачиванием торрентов - проблемы в блокировщике рекламы AdBlock. #хорошегоДня!


Статистика раздачи
Размер:  316 MB   |    Зарегистрирован:  4 года 10 месяцев   |    .torrent скачан:  25 раз   |   
Раздают:  1  
   
Загрузка...
 
Автор Сообщение

Galfimbul

avatar Galfimbul


Jytte Pilloni & Blue Sun - It's All Money Johnny

Жанр: Psychedelic Rock
Страна-производитель диска: Denmark
Год издания диска: 2004
Издатель (лейбл): Karma Music
Номер по каталогу: KMCD 10704
Страна: Denmark
Аудиокодек: FLAC (*.flac)
Тип рипа: tracks+.cue
Битрейт аудио: lossless
Продолжительность: 00:43:25
Источник (релизер): Chris
Наличие сканов в содержимом раздачи:
Треклист:

01. Come On Children 03:48
02. Gollum 04:48
03. Cream Candy Cloud 04:38
04. Blue Pyramid 03:57
05. Lad Mig Dele Dine Dromme 03:49
06. Gong-gong 05:17
07. Lucky Jack 03:26
08. Afraid 02:26
09. It's All Money Johnny 03:39
10. Blue Sun 04:40
Bonus Track:
11. Johnny The Junkie 02:59
Exact Audio Copy V1.0 beta 1 from 15. November 2010

EAC extraction logfile from 23. April 2011, 11:48

Jytte Pilloni & Blue Sun / It's All Money Johnny

Used drive : hp DVD A DH16ABLH Adapter: 0 ID: 0

Read mode : SecureUtilize accurate stream : YesDefeat audio cache : YesMake use of C2 pointers : No

Read offset correction : 6Overread into Lead-In and Lead-Out : NoFill up missing offset samples with silence : YesDelete leading and trailing silent blocks : NoNull samples used in CRC calculations : YesUsed interface : Native Win32 interface for Win NT & 2000Gap handling : Appended to previous track

Used output format : User Defined EncoderSelected bitrate : 896 kBit/sQuality : HighAdd ID3 tag : NoCommand line compressor : C:\Program Files (x86)\Exact Audio Copy\Flac\flac.exeAdditional command line options : -8 -V -T "ARTIST=%a" -T "TITLE=%t" -T "ALBUM=%g" -T "DATE=%y" -T "TRACKNUMBER=%n" -T "TOTALTRACKS=%x" -T "GENRE=%m" -T "ALBUMARTIST=%v" -T "ALBUM ARTIST=%v" -T "COMMENT=EAC V1.0 beta 1, Secure Mode, Test & Copy, AccurateRip

TOC of the extracted CD

Track | Start | Length | Start sector | End sector --------------------------------------------------------- 1 | 0:00.00 | 3:49.30 | 0 | 17204 2 | 3:49.30 | 4:49.69 | 17205 | 38948 3 | 8:39.24 | 4:38.68 | 38949 | 59866 4 | 13:18.17 | 3:59.57 | 59867 | 77848 5 | 17:17.74 | 3:51.35 | 77849 | 95208 6 | 21:09.34 | 5:18.61 | 95209 | 119119 7 | 26:28.20 | 3:27.63 | 119120 | 134707 8 | 29:56.08 | 2:28.10 | 134708 | 145817 9 | 32:24.18 | 3:40.52 | 145818 | 162369 10 | 36:04.70 | 4:41.45 | 162370 | 183489 11 | 40:46.40 | 2:58.43 | 183490 | 196882

Track 1

Filename C:\[runner's rip]\Jytte Pilloni & Blue Sun - It's All Money Johnny (1975) [flac] {Karma Music 2004}\01 - Come On Children.wav

Pre-gap length 0:00:02.00

Peak level 100.0 % Extraction speed 3.5 X Track quality 100.0 % Test CRC 2B95BDE5 Copy CRC 2B95BDE5 Accurately ripped (confidence 1) [A015C9B6] Copy OK

Track 2

Filename C:\[runner's rip]\Jytte Pilloni & Blue Sun - It's All Money Johnny (1975) [flac] {Karma Music 2004}\02 - Gollum.wav

Pre-gap length 0:00:01.46

Peak level 100.0 % Extraction speed 4.0 X Track quality 100.0 % Test CRC 6B47FD7D Copy CRC 6B47FD7D Accurately ripped (confidence 1) [3F654C5B] Copy OK

Track 3

Filename C:\[runner's rip]\Jytte Pilloni & Blue Sun - It's All Money Johnny (1975) [flac] {Karma Music 2004}\03 - Cream Candy Cloud.wav

Pre-gap length 0:00:01.36

Peak level 99.7 % Extraction speed 4.5 X Track quality 100.0 % Test CRC 2BE0B3F1 Copy CRC 2BE0B3F1 Accurately ripped (confidence 1) [BEF62943] Copy OK

Track 4

Filename C:\[runner's rip]\Jytte Pilloni & Blue Sun - It's All Money Johnny (1975) [flac] {Karma Music 2004}\04 - Blue Pyramid.wav

Pre-gap length 0:00:02.44

Peak level 100.0 % Extraction speed 3.7 X Track quality 99.9 % Test CRC 38EC777A Copy CRC 38EC777A Accurately ripped (confidence 1) [ECFB0780] Copy OK

Track 5

Filename C:\[runner's rip]\Jytte Pilloni & Blue Sun - It's All Money Johnny (1975) [flac] {Karma Music 2004}\05 - Lad Mig Dele Dine Drømme.wav

Pre-gap length 0:00:02.43

Peak level 100.0 % Extraction speed 4.9 X Track quality 100.0 % Test CRC 0F2BE9A2 Copy CRC 0F2BE9A2 Accurately ripped (confidence 1) [27EF0514] Copy OK

Track 6

Filename C:\[runner's rip]\Jytte Pilloni & Blue Sun - It's All Money Johnny (1975) [flac] {Karma Music 2004}\06 - Gong-Gong.wav

Pre-gap length 0:00:02.04

Peak level 100.0 % Extraction speed 5.4 X Track quality 100.0 % Test CRC 79020B71 Copy CRC 79020B71 Accurately ripped (confidence 1) [7E26818A] Copy OK

Track 7

Filename C:\[runner's rip]\Jytte Pilloni & Blue Sun - It's All Money Johnny (1975) [flac] {Karma Music 2004}\07 - Lucky Jack.wav

Pre-gap length 0:00:01.65

Peak level 100.0 % Extraction speed 5.4 X Track quality 100.0 % Test CRC 8C414E40 Copy CRC 8C414E40 Accurately ripped (confidence 1) [FDBD7BC1] Copy OK

Track 8

Filename C:\[runner's rip]\Jytte Pilloni & Blue Sun - It's All Money Johnny (1975) [flac] {Karma Music 2004}\08 - Afraid.wav

Pre-gap length 0:00:01.48

Peak level 100.0 % Extraction speed 5.3 X Track quality 100.0 % Test CRC 5BBCA66A Copy CRC 5BBCA66A Accurately ripped (confidence 1) [73DEE359] Copy OK

Track 9

Filename C:\[runner's rip]\Jytte Pilloni & Blue Sun - It's All Money Johnny (1975) [flac] {Karma Music 2004}\09 - It's All Money Johnny.wav

Pre-gap length 0:00:02.35

Peak level 100.0 % Extraction speed 5.8 X Track quality 100.0 % Test CRC 1E242681 Copy CRC 1E242681 Accurately ripped (confidence 1) [836B52CC] Copy OK

Track 10

Filename C:\[runner's rip]\Jytte Pilloni & Blue Sun - It's All Money Johnny (1975) [flac] {Karma Music 2004}\10 - Blue Sun.wav

Pre-gap length 0:00:01.36

Peak level 100.0 % Extraction speed 5.0 X Track quality 99.9 % Test CRC D03588B0 Copy CRC D03588B0 Accurately ripped (confidence 1) [22E5C675] Copy OK

Track 11

Filename C:\[runner's rip]\Jytte Pilloni & Blue Sun - It's All Money Johnny (1975) [flac] {Karma Music 2004}\11 - Johnny The Junkie.wav

Pre-gap length 0:00:02.05

Peak level 100.0 % Extraction speed 6.1 X Track quality 100.0 % Test CRC 6F95750B Copy CRC 6F95750B Accurately ripped (confidence 1) [ABFC760E] Copy OK

All tracks accurately ripped

No errors occurred

End of status report

==== Log checksum 714B9BD370374C984BBE3FE7D72DEC9FE78FF882417E5CF2F4D5008607E9B130 ====
REM ACCURATERIPID 0012a569-00a02e14-970a2d0bREM COMMENT "CUETools generated dummy CUE sheet"PERFORMER "Jytte Pilloni 'n' Blue Sun"TITLE "It's All Money Johnny"REM DATE 2004REM GENRE "Rock"FILE "01.Jytte Pilloni 'n' Blue Sun - Come On Children.wav" WAVE TRACK 01 AUDIO PERFORMER "Jytte Pilloni 'n' Blue Sun" TITLE "Come On Children" INDEX 01 00:00:00 TRACK 02 AUDIO PERFORMER "Jytte Pilloni 'n' Blue Sun" TITLE "Gollum" INDEX 00 03:46:28FILE "02.Jytte Pilloni 'n' Blue Sun - Gollum.wav" WAVE INDEX 01 00:00:00 TRACK 03 AUDIO PERFORMER "Jytte Pilloni 'n' Blue Sun" TITLE "Cream Candy Cloud" INDEX 00 04:47:10FILE "03.Jytte Pilloni 'n' Blue Sun - Cream Candy Cloud.wav" WAVE INDEX 01 00:00:00 TRACK 04 AUDIO PERFORMER "Jytte Pilloni 'n' Blue Sun" TITLE "Blue Pyramid" INDEX 00 04:33:73FILE "04.Jytte Pilloni 'n' Blue Sun - Blue Pyramid.wav" WAVE INDEX 01 00:00:00 TRACK 05 AUDIO PERFORMER "Jytte Pilloni 'n' Blue Sun" TITLE "Lad Mig Dele Dine Dromme" INDEX 00 03:54:60FILE "05.Jytte Pilloni 'n' Blue Sun - Lad Mig Dele Dine Dromme.wav" WAVE INDEX 01 00:00:00 TRACK 06 AUDIO PERFORMER "Jytte Pilloni 'n' Blue Sun" TITLE "Gong-gong" INDEX 00 03:47:28FILE "06.Jytte Pilloni 'n' Blue Sun - Gong-gong.wav" WAVE INDEX 01 00:00:00 TRACK 07 AUDIO PERFORMER "Jytte Pilloni 'n' Blue Sun" TITLE "Lucky Jack" INDEX 00 05:15:19FILE "07.Jytte Pilloni 'n' Blue Sun - Lucky Jack.wav" WAVE INDEX 01 00:00:00 TRACK 08 AUDIO PERFORMER "Jytte Pilloni 'n' Blue Sun" TITLE "Afraid" INDEX 00 03:24:54FILE "08.Jytte Pilloni 'n' Blue Sun - Afraid.wav" WAVE INDEX 01 00:00:00 TRACK 09 AUDIO PERFORMER "Jytte Pilloni 'n' Blue Sun" TITLE "It's All Money Johnny" INDEX 00 02:23:29FILE "09.Jytte Pilloni 'n' Blue Sun - It's All Money Johnny.wav" WAVE INDEX 01 00:00:00 TRACK 10 AUDIO PERFORMER "Jytte Pilloni 'n' Blue Sun" TITLE "Blue Sun" INDEX 00 03:37:63FILE "10.Jytte Pilloni 'n' Blue Sun - Blue Sun.wav" WAVE INDEX 01 00:00:00 TRACK 11 AUDIO PERFORMER "Jytte Pilloni 'n' Blue Sun" TITLE "Johnny The Junkie" INDEX 00 04:37:39FILE "11.Jytte Pilloni 'n' Blue Sun - Johnny The Junkie.wav" WAVE INDEX 01 00:00:00
-----------------------

DON'T MODIFY THIS FILE

-----------------------

PERFORMER: auCDtect Task Manager, ver. 1.5.1RC4 build 1.5.1.5Copyright (c) 2008-2010 y-soft. All rights reservedhttp://y-soft.org

ANALYZER: auCDtect: CD records authenticity detector, version 0.8.2Copyright (c) 2004 Oleg Berngardt. All rights reserved.Copyright (c) 2004 Alexander Djourik. All rights reserved.

FILE: 11.Jytte Pilloni 'n' Blue Sun - Johnny The Junkie.flac Size: 20492608 Hash: B33582EFBA922E7BF7CDFECEBD344B38 Accuracy: -m8 Conclusion: CDDA 100% Signature: 6C7E3E3A26652F434EB7684B157ED6FC829A84E7FILE: 10.Jytte Pilloni 'n' Blue Sun - Blue Sun.flac Size: 35830457 Hash: AADA8B17FEE7CE0D395F171310B2AAC3 Accuracy: -m8 Conclusion: CDDA 100% Signature: BE68A1433E4B589FAA91BF74F391D0D9BC08CB69FILE: 09.Jytte Pilloni 'n' Blue Sun - It's All Money Johnny.flac Size: 27916288 Hash: 70ABE2F0798FDA93565E48DFA12FF558 Accuracy: -m8 Conclusion: CDDA 100% Signature: CB1733235A113386276E52230C2C22EA9183BF00FILE: 08.Jytte Pilloni 'n' Blue Sun - Afraid.flac Size: 17461505 Hash: 6CFDCF0D025E509DAB210D7807F3F9DC Accuracy: -m8 Conclusion: CDDA 100% Signature: 23E83894B7E4D26CA4D1F883383B805A111C169EFILE: 07.Jytte Pilloni 'n' Blue Sun - Lucky Jack.flac Size: 24892537 Hash: 5516F5A04EF205F6295EAF16D105599E Accuracy: -m8 Conclusion: CDDA 100% Signature: 31C43C560F4C156D6066F7666B18B5410501A7A1FILE: 06.Jytte Pilloni 'n' Blue Sun - Gong-gong.flac Size: 38948123 Hash: B5B5CFD4B43014241B42CBCA471AB453 Accuracy: -m8 Conclusion: CDDA 100% Signature: 675D95B1039EF2BCAC49172357B9EB30664B06E0FILE: 05.Jytte Pilloni 'n' Blue Sun - Lad Mig Dele Dine Dromme.flac Size: 29579335 Hash: 9F90DBD8F84B68EE8BA5CC600464F211 Accuracy: -m8 Conclusion: CDDA 99% Signature: 7D863184F7FFFC965CC57685D2FA591FC0620F54FILE: 04.Jytte Pilloni 'n' Blue Sun - Blue Pyramid.flac Size: 29256278 Hash: FC00469A9C6716291B43E59654937CD4 Accuracy: -m8 Conclusion: CDDA 100% Signature: AF1F33ABD24EE51FC032C4F4482599506F88AA32FILE: 03.Jytte Pilloni 'n' Blue Sun - Cream Candy Cloud.flac Size: 32034765 Hash: CB7FD774E5D56E5E3C9DC2721005B3D1 Accuracy: -m8 Conclusion: CDDA 100% Signature: D20A1DA6E84998C8AEF1CBFCD925A2858F2AD2C0FILE: 02.Jytte Pilloni 'n' Blue Sun - Gollum.flac Size: 31154613 Hash: 2F1FE664696CD965685FE136CDB07790 Accuracy: -m8 Conclusion: CDDA 100% Signature: 957733D15F1F3E12821FAE5A731E0AC2CEEB98B6FILE: 01.Jytte Pilloni 'n' Blue Sun - Come On Children.flac Size: 29541803 Hash: E7D9FC04AE9F7A2943407F7DA7887F22 Accuracy: -m8 Conclusion: CDDA 99% Signature: CB778D0EBB4026E1AEDA4FB082A98FE8FE71F17D
Доп. информация:
Jytte Pilloni - Vocals
Poul "Hvem Ellers" Ehlers - Bass
Bo Thrige Andersen - Drums
Stefan Borum - Keyboards
Torben Bruun - Guitar
Preben Eriksen - Guitar
Richard Greenwood - Vocals, Violin
Additional Musicians
Niels Barfod - Alto Sax
Ole Kuhl - Tenor Sax
Verner Work - Trumpet
Kjeld Meller - Trombone
Jytte Pilloni - Датская певица и актриса (1951-1997). В 70-х годах главным образом активна, как актриса, в 1975 начала сотрудничество с Blue Sun и в 80-х создала свою собственную популярной рок-группу Pilloni Band. После трех альбомов, она сформировала Sorte Penge и в течение 11 лет она гастролировала с музыкальным материалом основанным на творчестве John Mogensen.


Трекер:  [ 23-Дек-2012 12:05 ]

  

Скачать .torrent

Размер .torrent файла 14 KB


Размер: 316 MB
Хэш (hash) релиза: 3a9cc5e2f32074be1c0dc5482e6c0cf969f26c0d

Еще никто не оставлял запись к записи скачать торрент Jytte Pilloni & Blue Sun - Its All Money Johnny - 1976 . Будь первым!

!Обратная связь