Скачать через торрент музыку Midas - In concert - 2002, APE бесплатно без регистрации torrent

Если у вас наблюдаются проблемы со скриншотами, переходом по ссылками, скачиванием торрентов - проблемы в блокировщике рекламы AdBlock. #хорошегоДня!


Статистика раздачи
Размер:  488 MB   |    Зарегистрирован:  4 года 10 месяцев   |    .torrent скачан:  24 раза   |   
Раздают:  1  
   
Загрузка...
 
Автор Сообщение

Galfimbul

avatar Galfimbul


Midas / In concert

Жанр: Symphonic Prog / Progressive Rock
Страна-производитель диска: Japan
Год издания: 2002
Издатель (лейбл): BELLE ANTIQUE
Номер по каталогу: BELLE 02773
Страна: Japan
Аудиокодек: APE (*.ape)
Тип рипа: image+.cue
Битрейт аудио: lossless
Продолжительность: 01:11:11
Источник (релизер): домашние закрома
Наличие сканов в содержимом раздачи: да
Треклист:
01. Opening S.E. (By The Lotus Pond)
02. Flying Denture
03. Mortuary
04. Common Factor
05. My Heart
06. Line
07. Future Life - Flying To The Future
08. On The Earth (digest) E-acoustic Guitar Solo
09. Lovers
10. Lamentable Dance
11. Angeric Lights
12. Sham Noctiluca
13. La Festa
Exact Audio Copy V1.0 beta 3 from 29. August 2011

Отчёт EAC об извлечении, выполненном 10. декабря 2012, 1:05

Midas / In Concert (Live)

Дисковод: ASUS SDRW-08D1S-U Adapter: 1 ID: 0

Режим чтения : ДостоверностьИспользование точного потока : ДаОтключение кэша аудио : ДаИспользование указателей C2 : Нет

Коррекция смещения при чтении : 103Способность читать области Lead-in и Lead-out : НетЗаполнение пропущенных сэмплов тишиной : ДаУдаление блоков с тишиной в начале и конце : НетПри вычислениях CRC использовались нулевые сэмплы : ДаИнтерфейс : Встроенный Win32-интерфейс для Win NT/2000

Выходной формат : Пользовательский кодировщикВыбранный битрейт : 1024 kBit/sКачество : ВысокийДобавление ID3-тега : НетУтилита сжатия : C:\Program Files\Exact Audio Copy\Monkey's Audio\MAC.exeДополнительные параметры : %source% %dest% -c3000

TOC извлечённого CD

Трек | Старт | Длительность | Начальный сектор | Конечный сектор --------------------------------------------------------------------- 1 | 0:00.00 | 1:19.07 | 0 | 5931 2 | 1:19.07 | 3:44.45 | 5932 | 22776 3 | 5:03.52 | 4:39.30 | 22777 | 43731 4 | 9:43.07 | 7:30.62 | 43732 | 77543 5 | 17:13.69 | 4:57.13 | 77544 | 99831 6 | 22:11.07 | 5:56.00 | 99832 | 126531 7 | 28:07.07 | 8:03.27 | 126532 | 162783 8 | 36:10.34 | 3:57.33 | 162784 | 180591 9 | 40:07.67 | 6:58.15 | 180592 | 211956 10 | 47:06.07 | 5:30.35 | 211957 | 236741 11 | 52:36.42 | 4:53.65 | 236742 | 258781 12 | 57:30.32 | 8:27.62 | 258782 | 296868 13 | 65:58.19 | 5:12.63 | 296869 | 320331

Характеристики диапазона извлечения и сообщения об ошибках

Выбранный диапазон

Имя файла H:\!!!-МОИ РАЗДАЧИ-!!!\CD - новые\Midas (2002) - In Concert (Live)\Midas - In Concert (Live).wav

Пиковый уровень 98.8 % Скорость извлечения 2.2 X Качество диапазона 100.0 % CRC теста F82F2823 CRC копии F82F2823 Копирование... OK

Ошибок не произошло

Конец отчёта

---- CUETools DB Plugin V2.1.3

[CTDB TOCID: tQrkkr1DcYupzMa0F233uN5ltW0-] disk not present in database, Submit result: tQrkkr1DcYupzMa0F233uN5ltW0- has been uploaded

==== Контрольная сумма отчёта DB3B7A1308111FCFB305B1AF02D71959CC0B0ECB353BC69AA46C8C34C412AC8D ====
AUDIOCHECKER v2.0 beta (build 457) - by Dester - <a href="mailto:opdester@freemail.hu" class="postLink">opdester@freemail.hu</a>~~~~~~~~~~~~~~~~~~~~~~~~~~~~~~~~~~-=== НЕ РЕДАКТИРУЙТЕ ЭТОТ ФАЙЛ! ===-

Путь: ...\Midas (2002) - In Concert (Live)

01 -=- Midas - In Concert (Live).ape -=- CDDA (100%)

114756036
Though MIDAS were formed in Japan in the early eighties, the band persisted primarily on infrequent live appearances and with a more traditional Japanese rock sound their first fourteen years. The band released only a single vinyl album in 1988 (since reissued on CD), before reforming with a more modern, aggressive sound, often with Japanese folklore leanings in their lyrical compositions, in 1992. They have released three additional studio and one live album since their reorganization
The band also added the electric violin around this time, with the inevitable result of them finding themselves often labeled as a progressive symphonic band. Leader Eigo Utoh pointedly distances himself and the band from other symphonic bands and particularly those of Japanese origin, which he suggests are too often influenced by the more well-known European bands. MIDAS instead has focused on developing their own uniquely Eastern-leaning sound that is heavily infused with synthesized arrangements from a variety of keyboard instruments. The newer MIDAS sound combines elements of jazz and classical music with the peculiar modern Japanese interest in complex electronica and dance, and even adds a heavier rock sounds at times. All this is textured with multiple layers of keyboard and violin and an comparative scarcity of electric guitar. With their last album the band moved closer to pop-leaning song constructions, although the violin and ever-present synthesizers ensure a neo-progressive bent of sorts remains in the music.
The band's lyrics are sung in Japanese with themes that are often socially and politically-charged, while just as often are folk-leaning. MIDAS' style is quite difficult to compare to any other, although OUTER LIMITS has been mentioned as similarly-leaning in their musical ambitions, if not in their actual sound.
MIDAS are still nominally active, and are reportedly planning a new studio album in 2006 or 2007.
MIDAS deserve recognition on the Archives for their unique blend of several progressive styles (jazz/fusion, RIO, metal, symphonic, neo, folk), as well as their intentional focus on developing an Eastern-leaning sound to distinguish them from European progressive bands, and to pave a way for the development of a new family of Japanese progressive music.
- Eigo Utoh / violin, guitar and vocals
- Eisho Lynn / keyboards
- Shohei Matsuura / bass and pedal synthesizer
- Kenjiko Kawakatsu / drums and percussion


Трекер:  [ 23-Дек-2012 12:05 ]

  

Скачать .torrent

Размер .torrent файла 20 KB


Размер: 488 MB
Хэш (hash) релиза: b61ccc4b719a7cfd9717fcc7840e6c19c2768ace

Еще никто не оставлял запись к записи скачать торрент Midas - In concert - 2002, APE . Будь первым!

!Обратная связь