Homeland torrent

, , - AdBlock. #!


46.67 GB   |    :  4 10    |    .torrent :  72    |   
1  
   
...
 

L


( ) / Homeland
The nation sees a hero. She sees a threat.



: 2012
:
: Crime, Drama, Mystery
iTunes: Drama
: ~ 0:50:00
: (, ) - LostFilm
:
1080p - H.264, ~5000 kbps avg, 1920x1080 (16:9), 23.976 fps
720p - H.264, ~4000 kbps avg, 1280 x 720 (16:9), 23.976 fps
:
3 5.1 384 kbps - / (, ) - LostFilm
AC 2.0 160 kbps - / (, ) - LostFilm
C:
3GPP Text -
3GPP Text -


:
, ,
:
, ,
:
, ,
:
( ), (), ( ), ( ), ( ), ( )
:
, 2003 . , , . , - .
01. (The Smile)
02. (Beirut Is Back)
03. (State of Independence)
04. (New Car Smell)
05. (Q&A)
06. (A Gettysburg Address)
07. (The Clearing)
08. (I'll Fly Away)
09. (Two Hats)
10. (Broken Hearts)
11. (In Memoriam)
12. The Choice ()
Sort Album: Homeland, Season 2
XID: RG-Apple:vendor-id:2012-574688-201
genreID: 4001
artistID: 494917966
contentID: 567397324
Copyright: 2012 Twentieth Century Fox Film Corporation. All rights reserved.
Rating: 14
Long Description: Months after the dramatic events that prompted Carrie to undergo Electroconvulsive Therapy, the former CIA case officer has found a modicum of peace in her familys suburban embrace. But the strides shes made towards mental health are threatened when an asset from her former life comes in from the cold. Meanwhile, freshman Congressman Nick Brody discovers that Abu Nazir may not be content with his nonviolent approach to affecting change in American foreign policy. And Dana lets a vital secret slip.
Description: Months after the dramatic events that prompted Carrie to undergo Electroconvulsive Therapy, the former CIA case officer has found a modicum of peace in her familys suburban embrace. But the strides shes made towards mental health are threatened when an asset from her former life comes in from the cold. Meanwhile, freshman Congressman Nick Brody discovers that Abu Nazir may not be content with his nonviolent approach to affecting change in American foreign policy. And Dana lets a vital secret slip.
TV Season: 2
TV Episode ID: 201
TV Network: Showtime
TV Episode #: 1
TV Show: Homeland
Disk #: 1/1
Track #: 1/0
Release Date: 2012-09-30T07:00:00Z
Genre: Drama
Album: Homeland
Album Artist: Homeland
Artist: Homeland
Name: The Smile
General
Complete name : /Volumes/Public/iTunes/TV Shows/Homeland/Season 2/01 The Smile (HD).m4v
Format : MPEG-4
Codec ID : M4V
File size : 1.99 GiB
Duration : 55mn 20s
Overall bit rate : 5 144 Kbps
Movie name : The Smile
Album : Homeland
Album/Performer : Homeland
Part/Position : 1
Part/Total : 1
Track name/Position : 1
Track name/Total : 0
Performer : Homeland
Genre : Drama
Recorded date : UTC 2012-09-30 07:00:00
Encoded date : UTC 2012-10-05 18:08:41
Tagged date : UTC 2012-10-05 18:51:07
Copyright : � 2012 Twentieth Century Fox Film Corporation. All rights reserved.
Cover : Yes
tvsh : Homeland
tvnn : Showtime
tven : 201
tvsn : 2
tves : 1
soal : Homeland, Season 2
desc : Months after the dramatic events that prompted Carrie to undergo Electroconvulsive Therapy, the former CIA case officer has found a modicum of peace in her family?s suburban embrace. But the strides she?s made towards mental health are threatened when an asset from her former life comes in from the cold. Meanwhile, freshman Congressman Nick Brody discovers that Abu Nazir may not be content with his nonviolent approach to affecting change in American foreign policy. And Dana lets a vital secret slip.
ldes : Months after the dramatic events that prompted Carrie to undergo Electroconvulsive Therapy, the former CIA case officer has found a modicum of peace in her family?s suburban embrace. But the strides she?s made towards mental health are threatened when an asset from her former life comes in from the cold. Meanwhile, freshman Congressman Nick Brody discovers that Abu Nazir may not be content with his nonviolent approach to affecting change in American foreign policy. And Dana lets a vital secret slip.
hdvd : 1
stik : 10
rtng : 0
cnID : 567397324
atID : 494917966
geID : 4001
xid : RG-Apple:vendor-id:2012-574688-201
iTunEXTC : us-tv|TV-MA|600|

Video
ID : 1
Format : AVC
Format/Info : Advanced Video Codec
Format profile : <a href="mailto:High@L3.1" class="postLink">High@L3.1</a>
Format settings, CABAC : No
Format settings, ReFrames : 2 frames
Format settings, GOP : M=2, N=24
Codec ID : avc1
Codec ID/Info : Advanced Video Coding
Duration : 55mn 20s
Bit rate mode : Variable
Bit rate : 4 039 Kbps
Width : 1 280 pixels
Height : 720 pixels
Display aspect ratio : 16:9
Frame rate mode : Variable
Frame rate : 23.976 fps
Minimum frame rate : 23.810 fps
Maximum frame rate : 24.390 fps
Color space : YUV
Chroma subsampling : 4:2:0
Bit depth : 8 bits
Scan type : Progressive
Bits/(Pixel*Frame) : 0.183
Stream size : 1.56 GiB (79%)
Language : English
Encoded date : UTC 2012-10-05 18:08:42
Tagged date : UTC 2012-10-05 18:09:38
Color primaries : BT.709-5, BT.1361, IEC 61966-2-4, SMPTE RP177
Transfer characteristics : BT.709-5, BT.1361
Matrix coefficients : BT.709-5, BT.1361, IEC 61966-2-4 709, SMPTE RP177

Audio #1
ID : 2
Format : AAC
Format/Info : Advanced Audio Codec
Format profile : LC
Codec ID : 40
Duration : 55mn 20s
Bit rate mode : Variable
Bit rate : 150 Kbps
Maximum bit rate : 221 Kbps
Channel(s) : 2 channels
Channel positions : Front: L R
Sampling rate : 44.1 KHz
Compression mode : Lossy
Stream size : 59.5 MiB (3%)
Language : Russian
Encoded date : UTC 2012-10-05 18:08:42
Tagged date : UTC 2012-10-05 18:08:45

Audio #2
ID : 3
Format : AAC
Format/Info : Advanced Audio Codec
Format profile : LC
Codec ID : 40
Duration : 55mn 20s
Bit rate mode : Variable
Bit rate : 150 Kbps
Maximum bit rate : 221 Kbps
Channel(s) : 2 channels
Channel positions : Front: L R
Sampling rate : 44.1 KHz
Compression mode : Lossy
Stream size : 59.5 MiB (3%)
Language : English
Encoded date : UTC 2012-10-05 18:32:40
Tagged date : UTC 2012-10-05 18:32:43

Audio #3
ID : 4
Format : AC-3
Format/Info : Audio Coding 3
Mode extension : CM (complete main)
Codec ID : ac-3
Duration : 55mn 20s
Bit rate mode : Constant
Bit rate : 384 Kbps
Channel(s) : 6 channels
Channel positions : Front: L C R, Side: L R, LFE
Sampling rate : 48.0 KHz
Bit depth : 16 bits
Compression mode : Lossy
Stream size : 152 MiB (7%)
Language : Russian
Encoded date : UTC 2012-10-05 18:32:40
Tagged date : UTC 2012-10-05 18:32:55

Audio #4
ID : 5
Format : AC-3
Format/Info : Audio Coding 3
Mode extension : CM (complete main)
Codec ID : ac-3
Duration : 55mn 20s
Bit rate mode : Constant
Bit rate : 384 Kbps
Channel(s) : 6 channels
Channel positions : Front: L C R, Side: L R, LFE
Sampling rate : 48.0 KHz
Bit depth : 16 bits
Compression mode : Lossy
Stream size : 152 MiB (7%)
Language : English
Encoded date : UTC 2012-10-05 18:32:40
Tagged date : UTC 2012-10-05 18:33:05
General
Complete name : /Volumes/Public/iTunes/TV Shows/Homeland/Season 2/01 The Smile (1080p HD).m4v
Format : MPEG-4
Codec ID : M4V
File size : 2.37 GiB
Duration : 55mn 20s
Overall bit rate : 6 129 Kbps
Movie name : The Smile
Album : Homeland
Album/Performer : Homeland
Part/Position : 1
Part/Total : 1
Track name/Position : 1
Track name/Total : 0
Performer : Homeland
Genre : Drama
Recorded date : UTC 2012-09-30 07:00:00
Encoded date : UTC 2012-10-16 13:07:54
Tagged date : UTC 2012-10-16 13:21:05
Copyright : � 2012 Twentieth Century Fox Film Corporation. All rights reserved.
Cover : Yes
tvsh : Homeland
tvnn : Showtime
tven : 201
tvsn : 2
tves : 1
soal : Homeland, Season 2
desc : Months after the dramatic events that prompted Carrie to undergo Electroconvulsive Therapy, the former CIA case officer has found a modicum of peace in her family?s suburban embrace. But the strides she?s made towards mental health are threatened when an asset from her former life comes in from the cold. Meanwhile, freshman Congressman Nick Brody discovers that Abu Nazir may not be content with his nonviolent approach to affecting change in American foreign policy. And Dana lets a vital secret slip.
ldes : Months after the dramatic events that prompted Carrie to undergo Electroconvulsive Therapy, the former CIA case officer has found a modicum of peace in her family?s suburban embrace. But the strides she?s made towards mental health are threatened when an asset from her former life comes in from the cold. Meanwhile, freshman Congressman Nick Brody discovers that Abu Nazir may not be content with his nonviolent approach to affecting change in American foreign policy. And Dana lets a vital secret slip.
hdvd : 2
stik : 10
rtng : 0
cnID : 567397324
atID : 494917966
geID : 4001
xid : Apple:vendor-id:2012-574688-201
iTunEXTC : us-tv|TV-MA|600|

Video
ID : 1
Format : AVC
Format/Info : Advanced Video Codec
Format profile : <a href="mailto:High@L4.0" class="postLink">High@L4.0</a>
Format settings, CABAC : Yes
Format settings, ReFrames : 4 frames
Codec ID : avc1
Codec ID/Info : Advanced Video Coding
Duration : 55mn 20s
Bit rate mode : Variable
Bit rate : 5 004 Kbps
Width : 1 920 pixels
Height : 1 080 pixels
Display aspect ratio : 16:9
Frame rate mode : Variable
Frame rate : 23.976 fps
Minimum frame rate : 23.810 fps
Maximum frame rate : 24.390 fps
Color space : YUV
Chroma subsampling : 4:2:0
Bit depth : 8 bits
Scan type : Progressive
Bits/(Pixel*Frame) : 0.101
Stream size : 1.93 GiB (82%)
Language : English
Encoded date : UTC 2012-10-16 13:13:34
Tagged date : UTC 2012-10-16 13:18:57
Color primaries : BT.709-5, BT.1361, IEC 61966-2-4, SMPTE RP177
Transfer characteristics : BT.709-5, BT.1361
Matrix coefficients : BT.709-5, BT.1361, IEC 61966-2-4 709, SMPTE RP177

Audio #1
ID : 2
Format : AAC
Format/Info : Advanced Audio Codec
Format profile : LC
Codec ID : 40
Duration : 55mn 20s
Bit rate mode : Variable
Bit rate : 160 Kbps
Maximum bit rate : 165 Kbps
Channel(s) : 2 channels
Channel positions : Front: L R
Sampling rate : 48.0 KHz
Compression mode : Lossy
Stream size : 63.3 MiB (3%)
Language : Russian
Encoded date : UTC 2012-10-16 13:07:54
Tagged date : UTC 2012-10-16 13:11:29

Audio #2
ID : 3
Format : AAC
Format/Info : Advanced Audio Codec
Format profile : LC
Codec ID : 40
Duration : 55mn 20s
Bit rate mode : Variable
Bit rate : 160 Kbps
Maximum bit rate : 165 Kbps
Channel(s) : 2 channels
Channel positions : Front: L R
Sampling rate : 48.0 KHz
Compression mode : Lossy
Stream size : 63.3 MiB (3%)
Language : English
Encoded date : UTC 2012-10-16 13:13:34
Tagged date : UTC 2012-10-16 13:18:57

Audio #3
ID : 4
Format : AC-3
Format/Info : Audio Coding 3
Mode extension : CM (complete main)
Codec ID : ac-3
Duration : 55mn 20s
Bit rate mode : Constant
Bit rate : 384 Kbps
Channel(s) : 6 channels
Channel positions : Front: L C R, Side: L R, LFE
Sampling rate : 48.0 KHz
Bit depth : 16 bits
Compression mode : Lossy
Stream size : 152 MiB (6%)
Language : Russian
Encoded date : UTC 2012-10-16 13:13:34
Tagged date : UTC 2012-10-16 13:18:57

Audio #4
ID : 5
Format : AC-3
Format/Info : Audio Coding 3
Mode extension : CM (complete main)
Codec ID : ac-3
Duration : 55mn 20s
Bit rate mode : Constant
Bit rate : 384 Kbps
Channel(s) : 6 channels
Channel positions : Front: L C R, Side: L R, LFE
Sampling rate : 48.0 KHz
Bit depth : 16 bits
Compression mode : Lossy
Stream size : 152 MiB (6%)
Language : English
Encoded date : UTC 2012-10-16 13:13:34
Tagged date : UTC 2012-10-16 13:18:57

Text #1
ID : 6
Format : Timed text
Muxing mode : sbtl
Codec ID : tx3g
Duration : 53mn 59s
Bit rate mode : Variable
Bit rate : 107 bps
Stream size : 42.4 KiB (0%)
Language : Russian
Encoded date : UTC 2012-10-16 13:13:34
Tagged date : UTC 2012-10-16 13:18:57

Text #2
ID : 7
Format : Timed text
Muxing mode : sbtl
Codec ID : tx3g
Duration : 53mn 59s
Bit rate mode : Variable
Bit rate : 79 bps
Stream size : 31.3 KiB (0%)
Language : English
Encoded date : UTC 2012-10-16 13:13:34
Tagged date : UTC 2012-10-16 13:18:58

Apple TV, iPad.
Windows VLC.

 ·  , , FAQ-
:  [ 21--2012 09:01 ]

  

.torrent

.torrent 120 KB


: 46.67 GB
(hash) : ba3ee61f8c4a3e253d300531099db31264aa353b
··
...

Homeland . !

!