Скачать через торрент музыку Neverending White Lights - Act III: Love Will Ruin бесплатно без регистрации torrent

Если у вас наблюдаются проблемы со скриншотами, переходом по ссылками, скачиванием торрентов - проблемы в блокировщике рекламы AdBlock. #хорошегоДня!


Статистика раздачи
Размер:  433 MB   |    Зарегистрирован:  4 года 7 месяцев   |    .torrent скачан:  13 раз   |   
Раздают:  1  
   
Загрузка...
 
Автор Сообщение

Galfimbul

avatar Galfimbul


Neverending White Lights / Act III: Love Will Ruin (Part 1)

Жанр: Pop-Rock, Indie
Страна-производитель диска: Canada
Год издания: 2011
Издатель (лейбл): Ocean Records
Номер по каталогу: FNCD5578
Страна: Canada
Аудиокодек: FLAC (*.flac)
Тип рипа: image+.cue
Битрейт аудио: lossless
Продолжительность: 49:15
Источник (релизер): YV_Wanderer
Наличие сканов в содержимом раздачи: да
Треклист:
01. Theme For Love Will Ruin (3:08)
02. Falling Apart (featuring Bed Of Stars) (4:03)
03. Starlight (featuring Pilot Speed) (3:46)
04. Say Hi For Me (3:41)
05. Goodbye (4:03)
06. The Game Needed Me (5:10)
07. The Lonely War (featuring Bed Of Stars) (3:56)
08. Ghost Ship (featuring Hot Hot Heat) (3:42)
09. The Waltz (3:50)
10. The Greatest One (5:21)
11. The Hereafter (featuring Bed Of Stars) (8:34)
Exact Audio Copy V0.99 prebeta 4 from 23. January 2008

EAC extraction logfile from 20. December 2012, 13:26

Neverending White Lights / Act III: Love Will Ruin

Used drive : Optiarc DVD RW AD-7590S Adapter: 5 ID: 0

Read mode : SecureUtilize accurate stream : YesDefeat audio cache : YesMake use of C2 pointers : No

Read offset correction : 48Overread into Lead-In and Lead-Out : NoFill up missing offset samples with silence : YesDelete leading and trailing silent blocks : NoNull samples used in CRC calculations : YesUsed interface : Installed external ASPI interface

Used output format : Internal WAV RoutinesSample format : 44.100 Hz; 16 Bit; Stereo

TOC of the extracted CD

Track | Start | Length | Start sector | End sector --------------------------------------------------------- 1 | 0:00.00 | 3:08.07 | 0 | 14106 2 | 3:08.07 | 4:03.26 | 14107 | 32357 3 | 7:11.33 | 3:45.72 | 32358 | 49304 4 | 10:57.30 | 3:40.49 | 49305 | 65853 5 | 14:38.04 | 4:03.35 | 65854 | 84113 6 | 18:41.39 | 5:10.09 | 84114 | 107372 7 | 23:51.48 | 3:55.35 | 107373 | 125032 8 | 27:47.08 | 3:42.47 | 125033 | 141729 9 | 31:29.55 | 3:50.23 | 141730 | 159002 10 | 35:20.03 | 5:21.27 | 159003 | 183104 11 | 40:41.30 | 8:34.28 | 183105 | 221682

Range status and errors

Selected range

Filename D:\Decompress\Neverending White Lights - Act III Love Will Ruin.wav

Peak level 100.0 % Range quality 100.0 % Test CRC C5CB01BF Copy CRC C5CB01BF Copy OK

No errors occurred

AccurateRip summary

Track 1 cannot be verified as accurate (confidence 1) [8F9FC6AF], AccurateRip returned [7123276B]Track 2 cannot be verified as accurate (confidence 1) [B8BC02B4], AccurateRip returned [32960DE8]Track 3 cannot be verified as accurate (confidence 1) [F8925915], AccurateRip returned [35AE3952]Track 4 cannot be verified as accurate (confidence 1) [43B38136], AccurateRip returned [67992BBE]Track 5 cannot be verified as accurate (confidence 1) [2DECD8DB], AccurateRip returned [2EB1ED80]Track 6 cannot be verified as accurate (confidence 1) [00342409], AccurateRip returned [7E37411B]Track 7 cannot be verified as accurate (confidence 1) [E2BEBA7C], AccurateRip returned [787920EB]Track 8 cannot be verified as accurate (confidence 1) [703D124A], AccurateRip returned [58D01C7C]Track 9 cannot be verified as accurate (confidence 1) [06A2A353], AccurateRip returned [459E3A8D]Track 10 cannot be verified as accurate (confidence 1) [100CFF1F], AccurateRip returned [7EAC4546]Track 11 cannot be verified as accurate (confidence 1) [73F1C9A7], AccurateRip returned [5D282010]

No tracks could be verified as accurateYou may have a different pressing from the one(s) in the database

End of status report


Трекер:  [ 23-Дек-2012 12:04 ]

  

Скачать .torrent

Размер .torrent файла 18 KB


Размер: 433 MB
Хэш (hash) релиза: 3a370b6d3c3c6ae2fec2f7d1ac86da1d6c3b9c13

Торренты, похожие на Neverending White Lights - Act III: Love Will Ruin скачать торрент

Форум Название Автор Размер S L Добавлен
Rосk | Mеtаl | Аltеrnаtivе, Рunk, Indереndеnt (mр3) ·· (Alternative/Indie/Rock/Pop-Rock) Neverending White Lights - Act III: Love Will Ruin - 2011, MP3, 320 kbps Galfimbul 118283384113 MB 0 0 1322421356

22:15

27-Ноя-11

Rосk | Mеtаl | Аltеrnаtivе, Рunk, Indереndеnt (mр3) ·· (Alternative/Indie/Rock) Neverending White Lights - Act III: Love Will Ruin - 2011, MP3, 256 kbps Galfimbul 9495889091 MB 0 0 1320907268

09:41

10-Ноя-11

Еще никто не оставлял запись к записи скачать торрент Neverending White Lights - Act III: Love Will Ruin . Будь первым!

!Обратная связь