Скачать через торрент музыку Oasis - All Around The World - 1998, APE бесплатно без регистрации torrent

Если у вас наблюдаются проблемы со скриншотами, переходом по ссылками, скачиванием торрентов - проблемы в блокировщике рекламы AdBlock. #хорошегоДня!


Статистика раздачи
Размер:  183 MB   |    Зарегистрирован:  4 года 9 месяцев   |    .torrent скачан:  21 раз   |   
Раздают:  1  
   
Загрузка...
 
Автор Сообщение

Galfimbul

avatar Galfimbul


Oasis / All Around The World

Жанр: Pop-Rock & Soft Rock
Страна-производитель диска: Japan
Год издания: 1998
Издатель (лейбл): SME
Номер по каталогу: ESCA 6911
Страна: UK
Аудиокодек: APE (*.ape)
Тип рипа: image+.cue
Битрейт аудио: lossless
Продолжительность: 0:23:17
Источник (релизер): Cобственный релиз
Наличие сканов в содержимом раздачи: нет
Треклист:
1. All Around The World
2. The Fame
3. Flashbax
4. Street Fighting Man
Exact Audio Copy V0.99 prebeta 5 from 4. May 2009

Отчёт EAC об извлечении, выполненном 7. января 2008, 19:15

Oasis / All Around The World

Дисковод: TSSTcorpCDDVDW TS-L633M Adapter: 1 ID: 0

Режим чтения : ДостоверностьИспользование точного потока : ДаОтключение кэша аудио : ДаИспользование указателей C2 : Нет

Коррекция смещения при чтении : 6Способность читать области Lead-in и Lead-out : НетЗаполнение пропущенных сэмплов тишиной : ДаУдаление блоков с тишиной в начале и конце : НетПри вычислениях CRC использовались нулевые сэмплы : НетИнтерфейс : Встроенный Win32-интерфейс для Win NT/2000

Выходной формат : Внутренние WAV-операцииФормат сэмплов : 44.100 Гц; 16 бит; стерео

TOC извлечённого CD

Трек | Старт | Длительность | Начальный сектор | Конечный сектор --------------------------------------------------------------------- 1 | 0:00.00 | 9:39.10 | 0 | 43434 2 | 9:39.10 | 4:35.27 | 43435 | 64086 3 | 14:14.37 | 5:07.38 | 64087 | 87149 4 | 19:22.00 | 3:54.52 | 87150 | 104751

Характеристики диапазона извлечения и сообщения об ошибках

Выбранный диапазон

Имя файла C:\Users\Mishany\Documents\Oasis - All Around The World.(Japan)\Oasis - All Around The World.wav

Пиковый уровень 100.0 % Качество диапазона 100.0 % CRC теста 5EDE9898 CRC копии 5EDE9898 Копирование... OK

Ошибок не произошло

AccurateRip: сводка

Трек 1 нет в базе данныхТрек 2 нет в базе данныхТрек 3 нет в базе данныхТрек 4 нет в базе данных

Ни одного трека нет в базе AccurateRip

Конец отчёта
REM GENRE RockREM DATE 1998REM DISCID 2F057404REM COMMENT "ExactAudioCopy v0.99pb5"PERFORMER "Oasis"TITLE "All Around The World"FILE "Oasis - All Around The World.ape" WAVE TRACK 01 AUDIO TITLE "All Around The World" PERFORMER "Oasis" INDEX 01 00:00:00 TRACK 02 AUDIO TITLE "The Fame" PERFORMER "Oasis" INDEX 01 09:39:10 TRACK 03 AUDIO TITLE "Flashbax" PERFORMER "Oasis" INDEX 01 14:14:37 TRACK 04 AUDIO TITLE "Street Fighting Man" PERFORMER "Oasis" INDEX 01 19:22:00


Трекер:  [ 23-Дек-2012 11:58 ]

  

Скачать .torrent

Размер .torrent файла 15 KB


Размер: 183 MB
Хэш (hash) релиза: aad42b23a44880f6cd55f1a21da3fc68f7573e3c

Еще никто не оставлял запись к записи скачать торрент Oasis - All Around The World - 1998, APE . Будь первым!

!Обратная связь