Скачать через торрент музыку Shingetsu - Live 25.26. july 1979, ABC kaikan hall Tokyo - 2004, APE бесплатно без регистрации torrent

Если у вас наблюдаются проблемы со скриншотами, переходом по ссылками, скачиванием торрентов - проблемы в блокировщике рекламы AdBlock. #хорошегоДня!


Статистика раздачи
Размер:  437 MB   |    Зарегистрирован:  4 года 8 месяцев   |    .torrent скачан:  13 раз   |   
Раздают:  1  
   
Загрузка...
 
Автор Сообщение

Galfimbul

avatar Galfimbul


Shingetsu / Live 25.26. july 1979, ABC kaikan hall Tokyo

Жанр: Symphonic Prog / Progressive Rock
Страна-производитель диска: France
Год издания: 2004
Издатель (лейбл): MUSEA
Номер по каталогу: FGBG 4571.AR
Страна: Japan
Аудиокодек: APE (*.ape)
Тип рипа: image+.cue
Битрейт аудио: lossless
Продолжительность: 01:07:31
Источник (релизер): домашние закрома
Наличие сканов в содержимом раздачи: да
Треклист:
01. Oni
02. Fragments Of The Dawn
03. The Other Side Of Morning
04. Influential Street
05. Afternoon - After The Rain
06. She Can't Return Home
07. Night Collector
08. Redish Eyes On Mirror
09. Voyage For Killing Love - Part Two
10. Return Of The Night
Exact Audio Copy V1.0 beta 3 from 29. August 2011

Отчёт EAC об извлечении, выполненном 10. декабря 2012, 6:54

Shingetsu / Shingetsu Live 1979

Дисковод: ASUS SDRW-08D1S-U Adapter: 1 ID: 0

Режим чтения : ДостоверностьИспользование точного потока : ДаОтключение кэша аудио : ДаИспользование указателей C2 : Нет

Коррекция смещения при чтении : 103Способность читать области Lead-in и Lead-out : НетЗаполнение пропущенных сэмплов тишиной : ДаУдаление блоков с тишиной в начале и конце : НетПри вычислениях CRC использовались нулевые сэмплы : ДаИнтерфейс : Встроенный Win32-интерфейс для Win NT/2000

Выходной формат : Пользовательский кодировщикВыбранный битрейт : 1024 kBit/sКачество : ВысокийДобавление ID3-тега : НетУтилита сжатия : C:\Program Files\Exact Audio Copy\Monkey's Audio\MAC.exeДополнительные параметры : %source% %dest% -c3000

TOC извлечённого CD

Трек | Старт | Длительность | Начальный сектор | Конечный сектор --------------------------------------------------------------------- 1 | 0:00.00 | 10:29.13 | 0 | 47187 2 | 10:29.13 | 7:21.27 | 47188 | 80289 3 | 17:50.40 | 4:01.65 | 80290 | 98429 4 | 21:52.30 | 4:16.56 | 98430 | 117685 5 | 26:09.11 | 4:15.17 | 117686 | 136827 6 | 30:24.28 | 5:07.43 | 136828 | 159895 7 | 35:31.71 | 5:11.50 | 159896 | 183270 8 | 40:43.46 | 20:39.06 | 183271 | 276201 9 | 61:22.52 | 6:08.60 | 276202 | 303861

Характеристики диапазона извлечения и сообщения об ошибках

Выбранный диапазон

Имя файла H:\!!!-МОИ РАЗДАЧИ-!!!\CD - новые\Subliminal (2007) - Limbo (experiment (2008)\Shingetsu - Shingetsu Live 1979.wav

Пиковый уровень 96.6 % Скорость извлечения 2.2 X Качество диапазона 100.0 % CRC теста 5FD81055 CRC копии 5FD81055 Копирование... OK

Ошибок не произошло

Конец отчёта

---- CUETools DB Plugin V2.1.3

[CTDB TOCID: Rbg27xniXPPuzXUTKUt_r1t7qLg-] disk not present in database, Submit result: Rbg27xniXPPuzXUTKUt_r1t7qLg- has been uploaded

==== Контрольная сумма отчёта 80D97A29A37CEC264D02ABCDFBE9A2081FC9E3810E5100A2722290EB60EB8FE7 ====
AUDIOCHECKER v2.0 beta (build 457) - by Dester - <a href="mailto:opdester@freemail.hu" class="postLink">opdester@freemail.hu</a>~~~~~~~~~~~~~~~~~~~~~~~~~~~~~~~~~~-=== НЕ РЕДАКТИРУЙТЕ ЭТОТ ФАЙЛ! ===-

Путь: ...\Shingetsu (1979) - Live ABC kaikan hall Tokyo (2004)

01 -=- Shingetsu - Shingetsu Live 1979.ape -=- CDDA (100%)

75863092
Доп. информация: В дополнение к релизам добрейших tatuk и novox, концертничек. Звук не идеален, но вполне слушабельно. Музыка интересная, и не понятно, почему прог архивы слишком критичны, на мой взгляд, к этой группе.
Hailed as one of the greatest Japanese progressive rock bands of all time, SHINGETSU ('new moon') arrived in the Japan music scene in the late 70s to carry the torch which seemed to have been left behind in England. Led by the 'Japanese Peter Gabriel', Makoto Kitayama, with his deep, wavering, mournful vocal, SHINGETSU stirred up some great press with their cinematic progressive sound, which rightly gained them comparisons to peak-time GENESIS. Consisting of Makoto Kitayama, Akira Hanamoto, Naoya Takahahi, Shizuo Suzuki and Haruhiko Tsuda, this promising band unfortunately only lived long enough to make one studio album, followed in later years by two live albums which nevertheless featured some unreleased performances. Their one album proper, the eponymous "Shingetsu", is no less than a masterpiece of symphonic prog, with the soft organ/synth soundscapes, tasteful use of mellotron, and 12-string guitar passages reminiscent of the softer UK bands of the 70s. Kitayama's haunting vocal and intriguing lyrics, however, give SHINGETSU a distinctive edge that is hard to find anywhere else in music even to this day.
The music here is very much in the Gabriel-era GENESIS mode complete with the singer changing into different costumes on stage. This is a live recording from July of 1979 not long after their debut album was released. There is a fair amount of mellotron on here as well. The big disappointment is with the sound quality here,it's poor,very muddy.The vocals seem really low in the mix and honestly i never would have purchased this cd if i'd known it would sound like this. It completely takes away from my enjoyment of it. Too bad because this is melodic,lush and quite impressive from what i can take from this show.
- Makoto Kitayama / vocal
- Akira Hanamoto / keyboards
- Naoya Takahashi / drums
- Shizuo Suzuki / bass
- Haruhiko Tsuda / guitar
Guest player
- Takashi Kokubo / vocal, keyboards


Трекер:  [ 23-Дек-2012 11:57 ]

  

Скачать .torrent

Размер .torrent файла 18 KB


Размер: 437 MB
Хэш (hash) релиза: 1113dffef88aa9bee5a1cdf10779db4564c87979

Еще никто не оставлял запись к записи скачать торрент Shingetsu - Live 25.26. july 1979, ABC kaikan hall Tokyo - 2004, APE . Будь первым!

!Обратная связь