Скачать через торрент музыку Ambrosia - One Eighty - 1980, FLAC бесплатно без регистрации torrent

Если у вас наблюдаются проблемы со скриншотами, переходом по ссылками, скачиванием торрентов - проблемы в блокировщике рекламы AdBlock. #хорошегоДня!


Статистика раздачи
Размер:  272 MB   |    Зарегистрирован:  4 года 7 месяцев   |    .torrent скачан:  24 раза   |   
Раздают:  1  
   
Загрузка...
 
Автор Сообщение

Galfimbul

avatar Galfimbul


Ambrosia / One Eighty

Жанр: Rock
Страна-производитель диска: USA
Год издания: 1980
Страна: USA
Аудиокодек: FLAC (*.flac)
Тип рипа: image+.cue
Битрейт аудио: lossless
Продолжительность: 39:48
Источник (релизер): не помню
Наличие сканов в содержимом раздачи: да
Треклист:
01 Ready [4:27]
02 Shape I'm in [3:31]
03 Kamikaze [4:05]
04 You're the Only Woman [4:22]
05 Rock N' a Hard Place [4:01]
06 Livin' on My Own [4:44]
07 Cryin' in the Rain [4:40]
08 No Big Deal [4:28]
09 Biggest Part of Me [5:27]
Exact Audio Copy V0.99 prebeta 4 from 23. January 2008

EAC extraction logfile from 25. April 2009, 14:01

Ambrosia / One Eighty

Used drive : HL-DT-STDVDRAM GSA-T20L Adapter: 1 ID: 0

Read mode : SecureUtilize accurate stream : YesDefeat audio cache : YesMake use of C2 pointers : No

Read offset correction : 667Overread into Lead-In and Lead-Out : NoFill up missing offset samples with silence : YesDelete leading and trailing silent blocks : NoNull samples used in CRC calculations : NoUsed interface : Native Win32 interface for Win NT & 2000

Used output format : Internal WAV RoutinesSample format : 44.100 Hz; 16 Bit; Stereo

TOC of the extracted CD

Track | Start | Length | Start sector | End sector --------------------------------------------------------- 1 | 0:00.32 | 4:27.15 | 32 | 20071 2 | 4:27.47 | 3:31.43 | 20072 | 35939 3 | 7:59.15 | 4:05.52 | 35940 | 54366 4 | 12:04.67 | 4:22.68 | 54367 | 74084 5 | 16:27.60 | 4:00.70 | 74085 | 92154 6 | 20:28.55 | 4:44.02 | 92155 | 113456 7 | 25:12.57 | 4:40.25 | 113457 | 134481 8 | 29:53.07 | 4:28.30 | 134482 | 154611 9 | 34:21.37 | 5:27.10 | 154612 | 179146

Range status and errors

Selected range

Filename F:\Music\Lossless\Ambrosia\1980-One Eighty\Ambrosia - One Eighty.wav

Peak level 99.2 % Range quality 100.0 % Copy CRC 6A8BFB57 Copy OK

No errors occurred

AccurateRip summary

Track 1 accurately ripped (confidence 7) [90DACBBD]Track 2 accurately ripped (confidence 7) [20BE4CDF]Track 3 accurately ripped (confidence 7) [EFA25BB0]Track 4 accurately ripped (confidence 7) [FA3619F3]Track 5 accurately ripped (confidence 7) [887C3E2F]Track 6 accurately ripped (confidence 7) [F67D0E5F]Track 7 accurately ripped (confidence 7) [969BDEEC]Track 8 accurately ripped (confidence 7) [169747B0]Track 9 accurately ripped (confidence 6) [A90391D0]

All tracks accurately ripped

End of status report


Трекер:  [ 23-Дек-2012 11:57 ]

  

Скачать .torrent

Размер .torrent файла 11 KB


Размер: 272 MB
Хэш (hash) релиза: 1e5b6142d8ef50c543f4b312d267ebc8826a2b80

Еще никто не оставлял запись к записи скачать торрент Ambrosia - One Eighty - 1980, FLAC . Будь первым!

!Обратная связь