Скачать через торрент музыку Big In Iowa - Bangin N Knockin - 1999, APE бесплатно без регистрации torrent

Если у вас наблюдаются проблемы со скриншотами, переходом по ссылками, скачиванием торрентов - проблемы в блокировщике рекламы AdBlock. #хорошегоДня!


Статистика раздачи
Размер:  306 MB   |    Зарегистрирован:  4 года 8 месяцев   |    .torrent скачан:  9 раз   |   
Раздают:  1  
   
Загрузка...
 
Автор Сообщение

Galfimbul

avatar Galfimbul


Big In Iowa / Bangin' 'N' Knockin'

Жанр: Folk, Country Rock
Страна-производитель диска: Germany
Год издания: 1999
Издатель (лейбл): Blue Rose / inakustik
Номер по каталогу: BLU CD0103
Страна: US
Аудиокодек: APE (*.ape)
Тип рипа: image+.cue
Битрейт аудио: lossless
Продолжительность: 00:45:50
Источник (релизер): avax
Наличие сканов в содержимом раздачи: нет
Треклист:
01 Neil's On The Radio
02 Don't Be Mad
03 Rewind
04 Miss You
05 Two Lane Highway
06 Anna Lee
07 Georgia
08 Hide Away
09 Summerfall
10 Old Dan Tucker
11 Not Gone Yet
12 Two Day Drunk
13 Cinnamon Girl
Exact Audio Copy V1.0 beta 3 from 29. August 2011

EAC extraction logfile from 24. August 2012, 13:54

Big In Iowa / Bangin' 'N' Knockin'

Used drive : PIONEER BD-RW BDR-206 Adapter: 2 ID: 3

Read mode : SecureUtilize accurate stream : YesDefeat audio cache : YesMake use of C2 pointers : No

Read offset correction : 667Overread into Lead-In and Lead-Out : NoFill up missing offset samples with silence : YesDelete leading and trailing silent blocks : NoNull samples used in CRC calculations : YesUsed interface : Native Win32 interface for Win NT & 2000

Used output format : User Defined EncoderSelected bitrate : 1024 kBit/sQuality : HighAdd ID3 tag : YesCommand line compressor : C:\Program Files\FLAC\flac.exeAdditional command line options : -5 -T "Artist=%artist%" -T "Title=%title%" -T "Album=%albumtitle%" -T "Date=%year%" -T "Tracknumber=%tracknr%" -T "Genre=%genre%" %source% -o %dest%

TOC of the extracted CD

Track | Start | Length | Start sector | End sector --------------------------------------------------------- 1 | 0:00.00 | 3:04.05 | 0 | 13804 2 | 3:04.05 | 3:14.65 | 13805 | 28419 3 | 6:18.70 | 4:02.33 | 28420 | 46602 4 | 10:21.28 | 4:28.33 | 46603 | 66735 5 | 14:49.61 | 4:12.34 | 66736 | 85669 6 | 19:02.20 | 4:17.13 | 85670 | 104957 7 | 23:19.33 | 5:20.60 | 104958 | 129017 8 | 28:40.18 | 3:39.61 | 129018 | 145503 9 | 32:20.04 | 3:12.18 | 145504 | 159921 10 | 35:32.22 | 2:04.48 | 159922 | 169269 11 | 37:36.70 | 2:50.23 | 169270 | 182042 12 | 40:27.18 | 2:49.29 | 182043 | 194746 13 | 43:16.47 | 2:33.68 | 194747 | 206289

Range status and errors

Selected range

Filename I:\=== VINYL RIPS ===\=== EAC===\X FRESH RIP\Big In Iowa - Bangin' 'N' Knockin'.wav

Peak level 97.3 % Extraction speed 6.8 X Range quality 100.0 % Test CRC 294EF1E2 Copy CRC 294EF1E2 Copy OK

No errors occurred

AccurateRip summary

Track 1 not present in databaseTrack 2 not present in databaseTrack 3 not present in databaseTrack 4 not present in databaseTrack 5 not present in databaseTrack 6 not present in databaseTrack 7 not present in databaseTrack 8 not present in databaseTrack 9 not present in databaseTrack 10 not present in databaseTrack 11 not present in databaseTrack 12 not present in databaseTrack 13 not present in database

None of the tracks are present in the AccurateRip database

End of status report

---- CUETools DB Plugin V2.1.3

[CTDB TOCID: mE_g.ELQnkroI6IsAprIq4wHI48-] disk not present in database, Submit result: mE_g.ELQnkroI6IsAprIq4wHI48- has been uploaded

==== Log checksum C009BBCD303F7D572E1273598BA8080B5515F56DF9986828099A725D5B57E13A ====
AUDIOCHECKER v2.0 beta (build 457) - by Dester - <a href="mailto:opdester@freemail.hu" class="postLink">opdester@freemail.hu</a>~~~~~~~~~~~~~~~~~~~~~~~~~~~~~~~~~~-=== DO NOT EDIT THIS FILE! ===-

Path: ...\Big In Iowa - Bangin' 'N' Knockin' {1999}

1 -=- Big In Iowa - Bangin' 'N' Knockin'.wav -=- CDDA (100%)

86325828


Трекер:  [ 23-Дек-2012 11:56 ]

  

Скачать .torrent

Размер .torrent файла 12 KB


Размер: 306 MB
Хэш (hash) релиза: 2af97df3649e30026325095efba429a5dbceab48

Еще никто не оставлял запись к записи скачать торрент Big In Iowa - Bangin N Knockin - 1999, APE . Будь первым!

!Обратная связь