Скачать через торрент музыку Neverending White Lights - Act II: The Blood And The Life Eternal - 2007, FLAC бесплатно без регистрации torrent

Если у вас наблюдаются проблемы со скриншотами, переходом по ссылками, скачиванием торрентов - проблемы в блокировщике рекламы AdBlock. #хорошегоДня!


Статистика раздачи
Размер:  556 MB   |    Зарегистрирован:  4 года 7 месяцев   |    .torrent скачан:  12 раз   |   
Раздают:  1  
   
Загрузка...
 
Автор Сообщение

Galfimbul

avatar Galfimbul


Neverending White Lights / Act II: The Blood And The Life Eternal

Жанр: Pop-Rock, Indie
Страна-производитель диска: Canada
Год издания: 2007
Издатель (лейбл): Ocean Records
Номер по каталогу: MRCD 6478
Страна: Canada
Аудиокодек: FLAC (*.flac)
Тип рипа: image+.cue
Битрейт аудио: lossless
Продолжительность: 01:02:36
Источник (релизер): YV_Wanderer
Наличие сканов в содержимом раздачи: да
Треклист:
01. Theme from the Blood and the Life Eternal (3:22)
02. Dove Coloured Sky(feat Jimmy Gnecco) (4:54)
03. The Living (Feat. Coury Palermo) (4:47)
04. The World is Darker (Feat. Auf Der Maur) (3:40)
05. My Life Without Me (feat. Mat Joly) (4:55)
06. Miss World (3:05)
07. The Warning (Frat. Jonathan Bates) (4:50)
08. Always (4:05)
09. Where we Are (Feat. Rob Dickenson) (3:34)
10. Black is the Colour of my True Loves Heart (Feat. Lexi Valentine) (5:56)
11. Bleeds to an End (4:47)
12. Nothing I can Save (4:15)
13. Distance (Feat. Aqualung) (4:54)
14. Last of the Great Lovers (Feat. Sune Rose Wagner) (5:32)
Exact Audio Copy V0.99 prebeta 4 from 23. January 2008

EAC extraction logfile from 20. December 2012, 10:34

Neverending White Lights / Act II: the Blood and the Life Eternal

Used drive : Optiarc DVD RW AD-7590S Adapter: 5 ID: 0

Read mode : SecureUtilize accurate stream : YesDefeat audio cache : YesMake use of C2 pointers : No

Read offset correction : 48Overread into Lead-In and Lead-Out : NoFill up missing offset samples with silence : YesDelete leading and trailing silent blocks : NoNull samples used in CRC calculations : YesUsed interface : Installed external ASPI interface

Used output format : Internal WAV RoutinesSample format : 44.100 Hz; 16 Bit; Stereo

TOC of the extracted CD

Track | Start | Length | Start sector | End sector --------------------------------------------------------- 1 | 0:00.00 | 3:22.32 | 0 | 15181 2 | 3:22.32 | 4:54.37 | 15182 | 37268 3 | 8:16.69 | 4:46.53 | 37269 | 58771 4 | 13:03.47 | 3:40.53 | 58772 | 75324 5 | 16:44.25 | 4:57.05 | 75325 | 97604 6 | 21:41.30 | 3:06.20 | 97605 | 111574 7 | 24:47.50 | 4:51.06 | 111575 | 133405 8 | 29:38.56 | 4:04.29 | 133406 | 151734 9 | 33:43.10 | 3:34.47 | 151735 | 167831 10 | 37:17.57 | 5:56.05 | 167832 | 194536 11 | 43:13.62 | 4:47.32 | 194537 | 216093 12 | 48:01.19 | 4:16.14 | 216094 | 235307 13 | 52:17.33 | 4:53.50 | 235308 | 257332 14 | 57:11.08 | 5:34.14 | 257333 | 282396 15 | 62:45.22 | 7:49.64 | 282397 | 317635

Range status and errors

Selected range

Filename D:\Decompress\Neverending White Lights - Act II the Blood and the Life Eternal.wav

Peak level 98.9 % Range quality 99.9 % Test CRC 2796D264 Copy CRC 2796D264 Copy OK

No errors occurred

AccurateRip summary

Track 1 accurately ripped (confidence 9) [86FCD87C]Track 2 accurately ripped (confidence 9) [FA5268CA]Track 3 accurately ripped (confidence 9) [2196F290]Track 4 accurately ripped (confidence 9) [8B30C983]Track 5 accurately ripped (confidence 9) [97C5B0CD]Track 6 accurately ripped (confidence 9) [D9076BCC]Track 7 accurately ripped (confidence 9) [1AFF6D99]Track 8 accurately ripped (confidence 9) [1D880879]Track 9 accurately ripped (confidence 9) [733C61FC]Track 10 accurately ripped (confidence 9) [407FD44A]Track 11 accurately ripped (confidence 9) [BDD0BB06]Track 12 accurately ripped (confidence 9) [2ECC1E7A]Track 13 accurately ripped (confidence 9) [3A0DE1DC]Track 14 accurately ripped (confidence 9) [FB405A66]Track 15 accurately ripped (confidence 9) [336CE08F]

All tracks accurately ripped

End of status report


Трекер:  [ 23-Дек-2012 11:56 ]

  

Скачать .torrent

Размер .torrent файла 12 KB


Размер: 556 MB
Хэш (hash) релиза: e815af244a0cd3b188649555ee475f4b7753d921

Еще никто не оставлял запись к записи скачать торрент Neverending White Lights - Act II: The Blood And The Life Eternal - 2007, FLAC . Будь первым!

!Обратная связь