Скачать через торрент музыку The Escape Club - Dollars And Sex - 1991, FLAC бесплатно без регистрации torrent

Если у вас наблюдаются проблемы со скриншотами, переходом по ссылками, скачиванием торрентов - проблемы в блокировщике рекламы AdBlock. #хорошегоДня!


Статистика раздачи
Размер:  336 MB   |    Зарегистрирован:  4 года 7 месяцев   |    .torrent скачан:  22 раза   |   
Раздают:  1  
   
Загрузка...
 
Автор Сообщение

Galfimbul

avatar Galfimbul


★●• The Escape Club - Dollars And Sex •●★

Жанр: Pop/Rock
Страна-производитель диска: Germany
Год издания диска: 1991
Издатель (лейбл): WEA International Inc.
Номер по каталогу: 9031-73501-2
Аудиокодек: FLAC (*.flac)
Тип рипа: image+.cue
Битрейт аудио: lossless
Продолжительность: 46:10
Наличие сканов в содержимом раздачи: да
Источник (релизер):

Dollars And Sex:

01. The Edge Of Your Bed [0:04:13.23]
02. Call It Poison [0:04:54.32]
03. So Fashionable [0:04:26.70]
04. I'll Be There [0:05:47.65]
05. Shout The Walls Down [0:04:28.68]
06. This City [0:05:09.42]
07. Blast Off To Heaven [0:04:19.00]
08. Freedom [0:04:06.30]
09. Sugar Man [0:04:00.58]
10. Come Alive [0:04:42.27]

Exact Audio Copy V1.0 beta 3 from 29. August 2011

EAC extraction logfile from 18. December 2012, 23:10

The Escape Club / Dollars And Sex

Used drive : Optiarc BD RW BD-5300S Adapter: 3 ID: 0

Read mode : SecureUtilize accurate stream : YesDefeat audio cache : YesMake use of C2 pointers : No

Read offset correction : 6Overread into Lead-In and Lead-Out : NoFill up missing offset samples with silence : YesDelete leading and trailing silent blocks : NoNull samples used in CRC calculations : YesUsed interface : Installed external ASPI interface

Used output format : User Defined EncoderSelected bitrate : 1024 kBit/sQuality : HighAdd ID3 tag : NoCommand line compressor : C:\Program Files (x86)\Exact Audio Copy\Flac\flac.exeAdditional command line options : -8 -V -T "Date=%year%" -T "Genre=%genre%" -T "COMMENT=ripped by bvstudio®" %source%

TOC of the extracted CD

Track | Start | Length | Start sector | End sector --------------------------------------------------------- 1 | 0:00.32 | 4:13.23 | 32 | 19029 2 | 4:13.55 | 4:54.32 | 19030 | 41111 3 | 9:08.12 | 4:26.70 | 41112 | 61131 4 | 13:35.07 | 5:47.65 | 61132 | 87221 5 | 19:22.72 | 4:28.68 | 87222 | 107389 6 | 23:51.65 | 5:09.42 | 107390 | 130606 7 | 29:01.32 | 4:19.00 | 130607 | 150031 8 | 33:20.32 | 4:06.30 | 150032 | 168511 9 | 37:26.62 | 4:00.58 | 168512 | 186569 10 | 41:27.45 | 4:42.27 | 186570 | 207746

Range status and errors

Selected range

Filename F:\The Escape Club - Dollars And Sex - 1991\The Escape Club - Dollars And Sex.wav

Peak level 100.0 % Extraction speed 9.0 X Range quality 100.0 % Test CRC 5404F3F6 Copy CRC 5404F3F6 Copy OK

No errors occurred

AccurateRip summary

Track 1 accurately ripped (confidence 27) [93C6C22D] (AR v1)Track 2 accurately ripped (confidence 25) [CB17CDF3] (AR v1)Track 3 accurately ripped (confidence 26) [FC6A883F] (AR v1)Track 4 accurately ripped (confidence 27) [9F008BAC] (AR v1)Track 5 accurately ripped (confidence 27) [6A9B1B97] (AR v1)Track 6 accurately ripped (confidence 26) [058993F5] (AR v1)Track 7 accurately ripped (confidence 24) [47E9E9CB] (AR v1)Track 8 accurately ripped (confidence 26) [83E428FF] (AR v1)Track 9 accurately ripped (confidence 27) [90C30AE4] (AR v1)Track 10 accurately ripped (confidence 25) [6CA0EE74] (AR v1)

All tracks accurately ripped

End of status report

==== Log checksum 5497EE94F94B19E3F8B17945A7EB140B9B0B690622247BA51AD5670A9D072246 ====
foobar2000 1.2 beta 1 / Dynamic Range Meter 1.1.1log date: 2012-12-18 23:24:23

--------------------------------------------------------------------------------Analyzed: The Escape Club / Dollars And Sex--------------------------------------------------------------------------------

DR Peak RMS Duration Track--------------------------------------------------------------------------------DR12 -0.18 dB -13.28 dB 4:13 01-The Edge Of Your BedDR9 -1.27 dB -11.76 dB 4:54 02-Call It PoisonDR12 0.00 dB -13.13 dB 4:27 03-So FashionableDR11 -0.61 dB -14.01 dB 5:48 04-I'll Be ThereDR11 -0.95 dB -13.75 dB 4:29 05-Shout The Walls DownDR11 -0.66 dB -13.29 dB 5:10 06-This CityDR11 -0.06 dB -12.89 dB 4:19 07-Blast Off To HeavenDR12 0.00 dB -13.01 dB 4:06 08-FreedomDR12 -1.47 dB -15.46 dB 4:01 09-Sugar ManDR11 -0.48 dB -13.00 dB 4:42 10-Come Alive--------------------------------------------------------------------------------

Number of tracks: 10Official DR value: DR11

Samplerate: 44100 HzChannels: 2Bits per sample: 16Bitrate: 943 kbpsCodec: FLAC================================================================================




Трекер:  [ 23-Дек-2012 11:56 ]

  

Скачать .torrent

Размер .torrent файла 14 KB


Размер: 336 MB
Хэш (hash) релиза: 3c6ba632dc6de5e454a456525f8da8fe90389cc3

Еще никто не оставлял запись к записи скачать торрент The Escape Club - Dollars And Sex - 1991, FLAC . Будь первым!

!Обратная связь