Скачать через торрент музыку Jethro Tull "Aqualung" - Living with the Past бесплатно без регистрации torrent

Если у вас наблюдаются проблемы со скриншотами, переходом по ссылками, скачиванием торрентов - проблемы в блокировщике рекламы AdBlock. #хорошегоДня!


Статистика раздачи
Размер:  844 MB   |    Зарегистрирован:  4 года 10 месяцев   |    .torrent скачан:  37 раз   |   
Раздают:  1  
   
Загрузка...
 
Автор Сообщение

Galfimbul

avatar Galfimbul


Jethro Tull "Aqualung" - Living with the Past, Nothing Is Easy: Live at the Isle of Wight 1970 Жанр: Progressive Rock
Год выпуска диска: 2008
Страна: United Kingdom
Производитель диска: Eagle / EAGDV021
Аудио кодек: FLAC
Тип рипа: tracks+.cue
Битрейт аудио: lossless
Продолжительность: 75:13 + 59:29
Наличие сканов в содержимом раздачи: DVD cover

Трэклист:
Living with the Past
01. Intro (0:22)
02. My Sunday Feeling (4:00)
03. Roots To Branches (5:34)
04. Jack-In-The-Green (2:40)
05. The Habanero Reel (4:03)
06. Sweet Dream (4:54)
07. In The Grip Of Stronger Stuff (2:57)
08. Aqualung (8:20)
09. Locomotive Breath (5:26)
10. Living In The Past (3:27)
11. Protect And Survive (1:01)
12. Nothing Is Easy (5:16)
13. Wond'Ring Aloud (1:54)
14. Life Is A Long Song (3:32)
15. A Christmas Song (3:05)
16. Cheap Day Return (1:12)
17. Mother Goose (1:57)
18. Dot Com (4:28)
19. Fat Man (5:06)
20. Some Day The Sun Won't Shine For You (4:13)
21. Cheerio (1:36)

Nothing Is Easy: Live at the Isle of Wight 1970
01. My Sunday Feeling (5:20)
02. My God (7:30)
03. With You There To Help Me (9:58)
04. To Cry You A Song (5:40)
05. Bourée (4:34)
06. Dharma For One (10:10)
07. Nothing Is Easy (5:36)
08. Medley: We Used To Know/For A Thousand Mothers (10:37)
Exact Audio Copy V1.0 beta 2 from 29. April 2011

EAC extraction logfile from 5. December 2011, 19:02

Jethro Tull / Living With The Past

Used drive : PLDS DVD+-RW DS-8A5SH Adapter: 0 ID: 0

Read mode : SecureUtilize accurate stream : YesDefeat audio cache : YesMake use of C2 pointers : No

Read offset correction : 6Overread into Lead-In and Lead-Out : NoFill up missing offset samples with silence : YesDelete leading and trailing silent blocks : NoNull samples used in CRC calculations : YesUsed interface : Native Win32 interface for Win NT & 2000Gap handling : Appended to previous track

Used output format : User Defined EncoderSelected bitrate : 256 kBit/sQuality : HighAdd ID3 tag : NoCommand line compressor : C:\Program Files (x86)\FLAC\flac.exeAdditional command line options : -8 -V -T "ARTIST=%artist%" -T "TITLE=%title%" -T "ALBUM=%albumtitle%" -T "DATE=%year%" -T "TRACKNUMBER=%tracknr%" -T "TOTALTRACKS=%numtracks%" -T "GENRE=%genre%" -T "ALBUMARTIST=%albumartist%" -T "ALBUM ARTIST=%albumartist%

TOC of the extracted CD

Track | Start | Length | Start sector | End sector --------------------------------------------------------- 1 | 0:00.00 | 0:22.34 | 0 | 1683 2 | 0:22.34 | 4:00.16 | 1684 | 19699 3 | 4:22.50 | 5:34.63 | 19700 | 44812 4 | 9:57.38 | 2:40.25 | 44813 | 56837 5 | 12:37.63 | 4:03.45 | 56838 | 75107 6 | 16:41.33 | 4:54.68 | 75108 | 97225 7 | 21:36.26 | 2:57.12 | 97226 | 110512 8 | 24:33.38 | 8:20.00 | 110513 | 148012 9 | 32:53.38 | 5:26.20 | 148013 | 172482 10 | 38:19.58 | 3:27.40 | 172483 | 188047 11 | 41:47.23 | 1:01.56 | 188048 | 192678 12 | 42:49.04 | 5:16.53 | 192679 | 216431 13 | 48:05.57 | 1:54.39 | 216432 | 225020 14 | 50:00.21 | 3:32.12 | 225021 | 240932 15 | 53:32.33 | 3:05.56 | 240933 | 254863 16 | 56:38.14 | 1:12.52 | 254864 | 260315 17 | 57:50.66 | 1:57.58 | 260316 | 269148 18 | 59:48.49 | 4:28.17 | 269149 | 289265 19 | 64:16.66 | 5:06.48 | 289266 | 312263 20 | 69:23.39 | 4:13.00 | 312264 | 331238 21 | 73:36.39 | 1:36.60 | 331239 | 338498

Track 1

Filename C:\Users\porcupine\Desktop\EAC\01 - Intro Live.wav

Pre-gap length 0:00:02.00

Peak level 74.0 % Extraction speed 0.5 X Track quality 100.0 % Test CRC 7D884A7B Copy CRC 7D884A7B Accurately ripped (confidence 5) [71763A7E] (AR v2) Copy OK

Track 2

Filename C:\Users\porcupine\Desktop\EAC\02 - My Sunday Feeling [Live].wav

Peak level 94.7 % Extraction speed 1.2 X Track quality 100.0 % Test CRC D3C13E47 Copy CRC D3C13E47 Accurately ripped (confidence 5) [A8E8AF46] (AR v2) Copy OK

Track 3

Filename C:\Users\porcupine\Desktop\EAC\03 - Roots To Branches [Live].wav

Pre-gap length 0:00:01.22

Peak level 94.7 % Extraction speed 1.4 X Track quality 100.0 % Test CRC CB2BA981 Copy CRC CB2BA981 Accurately ripped (confidence 5) [74BAB2EA] (AR v2) Copy OK

Track 4

Filename C:\Users\porcupine\Desktop\EAC\04 - Jack In The Green [Live].wav

Pre-gap length 0:00:01.58

Peak level 94.7 % Extraction speed 1.1 X Track quality 99.9 % Test CRC DDDEF1E6 Copy CRC DDDEF1E6 Accurately ripped (confidence 5) [EC5418E1] (AR v2) Copy OK

Track 5

Filename C:\Users\porcupine\Desktop\EAC\05 - The Habanero Reel [Live].wav

Pre-gap length 0:00:00.40

Peak level 94.7 % Extraction speed 1.5 X Track quality 100.0 % Test CRC F639CB55 Copy CRC F639CB55 Accurately ripped (confidence 5) [B841DB3A] (AR v2) Copy OK

Track 6

Filename C:\Users\porcupine\Desktop\EAC\06 - Sweet Dream [Live].wav

Peak level 94.7 % Extraction speed 1.7 X Track quality 100.0 % Test CRC A9F0EF0F Copy CRC A9F0EF0F Accurately ripped (confidence 5) [1DE93972] (AR v2) Copy OK

Track 7

Filename C:\Users\porcupine\Desktop\EAC\07 - In The Grip Of Stronger Stuff [Live].wav

Pre-gap length 0:00:00.37

Peak level 94.7 % Extraction speed 1.6 X Track quality 100.0 % Test CRC 66743308 Copy CRC 66743308 Accurately ripped (confidence 5) [4CF87B3E] (AR v2) Copy OK

Track 8

Filename C:\Users\porcupine\Desktop\EAC\08 - Aqualung [Live].wav

Pre-gap length 0:00:01.03

Peak level 94.7 % Extraction speed 1.8 X Track quality 99.9 % Test CRC 3DAC2379 Copy CRC 3DAC2379 Accurately ripped (confidence 5) [8CB16C79] (AR v2) Copy OK

Track 9

Filename C:\Users\porcupine\Desktop\EAC\09 - Locomotive Breath [Live].wav

Pre-gap length 0:00:00.63

Peak level 94.7 % Extraction speed 2.0 X Track quality 100.0 % Test CRC CFF6E4BF Copy CRC CFF6E4BF Accurately ripped (confidence 5) [0C0EE865] (AR v2) Copy OK

Track 10

Filename C:\Users\porcupine\Desktop\EAC\10 - Living In The Past [Live].wav

Peak level 94.7 % Extraction speed 2.0 X Track quality 100.0 % Test CRC 304CFF1F Copy CRC 304CFF1F Accurately ripped (confidence 5) [0649DF66] (AR v2) Copy OK

Track 11

Filename C:\Users\porcupine\Desktop\EAC\11 - Protect And Survive [Live].wav

Peak level 94.7 % Extraction speed 1.0 X Track quality 99.8 % Test CRC 492E3C16 Copy CRC 492E3C16 Accurately ripped (confidence 5) [BDCB9545] (AR v2) Copy OK

Track 12

Filename C:\Users\porcupine\Desktop\EAC\12 - Nothing Is Easy [Live].wav

Peak level 94.7 % Extraction speed 2.0 X Track quality 99.9 % Test CRC E6FBAF4B Copy CRC E6FBAF4B Accurately ripped (confidence 5) [1A96210E] (AR v2) Copy OK

Track 13

Filename C:\Users\porcupine\Desktop\EAC\13 - Wond'ring Aloud [Live].wav

Pre-gap length 0:00:02.44

Peak level 93.8 % Extraction speed 1.5 X Track quality 99.9 % Test CRC 2F7921D6 Copy CRC 2F7921D6 Accurately ripped (confidence 5) [B5580CBD] (AR v2) Copy OK

Track 14

Filename C:\Users\porcupine\Desktop\EAC\14 - Life Is A Long Song [Live].wav

Pre-gap length 0:00:01.05

Peak level 94.7 % Extraction speed 1.9 X Track quality 99.9 % Test CRC 0CB73799 Copy CRC 0CB73799 Accurately ripped (confidence 5) [A488FAB1] (AR v2) Copy OK

Track 15

Filename C:\Users\porcupine\Desktop\EAC\15 - A Christmas Song [Live].wav

Pre-gap length 0:00:01.15

Peak level 85.6 % Extraction speed 2.2 X Track quality 100.0 % Test CRC 80433B7D Copy CRC 80433B7D Accurately ripped (confidence 5) [5150C6A9] (AR v2) Copy OK

Track 16

Filename C:\Users\porcupine\Desktop\EAC\16 - Cheap Day Return [Live].wav

Pre-gap length 0:00:01.58

Peak level 89.7 % Extraction speed 1.3 X Track quality 99.8 % Test CRC B7103954 Copy CRC B7103954 Accurately ripped (confidence 5) [3895C1FE] (AR v2) Copy OK

Track 17

Filename C:\Users\porcupine\Desktop\EAC\17 - Mother Goose [Live].wav

Peak level 85.1 % Extraction speed 2.0 X Track quality 100.0 % Test CRC 55319F83 Copy CRC 55319F83 Accurately ripped (confidence 5) [731C6771] (AR v2) Copy OK

Track 18

Filename C:\Users\porcupine\Desktop\EAC\18 - Dot Com [Live].wav

Pre-gap length 0:00:01.15

Peak level 94.6 % Extraction speed 2.1 X Track quality 99.9 % Test CRC 767E99C3 Copy CRC 767E99C3 Accurately ripped (confidence 5) [DC16B0ED] (AR v2) Copy OK

Track 19

Filename C:\Users\porcupine\Desktop\EAC\19 - Fat Man [Live].wav

Pre-gap length 0:00:00.72

Peak level 94.7 % Extraction speed 2.5 X Track quality 100.0 % Test CRC 9C908AFC Copy CRC 9C908AFC Accurately ripped (confidence 5) [3361F2DB] (AR v2) Copy OK

Track 20

Filename C:\Users\porcupine\Desktop\EAC\20 - Some Day The Sun Won't Shine For You [Live].wav

Pre-gap length 0:00:00.36

Peak level 94.7 % Extraction speed 2.5 X Track quality 100.0 % Test CRC CA439FE4 Copy CRC CA439FE4 Accurately ripped (confidence 5) [3B803F40] (AR v2) Copy OK

Track 21

Filename C:\Users\porcupine\Desktop\EAC\21 - Cheerio [Live].wav

Pre-gap length 0:00:01.40

Peak level 94.7 % Extraction speed 2.1 X Track quality 100.0 % Test CRC 18B4C912 Copy CRC 18B4C912 Accurately ripped (confidence 5) [B4914548] (AR v2) Copy OK

All tracks accurately ripped

No errors occurred

End of status report

==== Log checksum A51E5811575244192A930107D6A2CA826AA25BC8445CF182FD6F7BDFD4A8E470 ====
REM GENRE "Progressive Rock"REM DATE 2002REM DISCID 2E11A115REM COMMENT "ExactAudioCopy v1.0b2"PERFORMER "Jethro Tull"TITLE "Living With The Past"FILE "01 - Intro Live.wav" WAVE TRACK 01 AUDIO TITLE "Intro Live" PERFORMER "Jethro Tull" INDEX 01 00:00:00FILE "02 - My Sunday Feeling [Live].wav" WAVE TRACK 02 AUDIO TITLE "My Sunday Feeling [Live]" PERFORMER "Jethro Tull" INDEX 01 00:00:00 TRACK 03 AUDIO TITLE "Roots To Branches [Live]" PERFORMER "Jethro Tull" INDEX 00 03:58:69FILE "03 - Roots To Branches [Live].wav" WAVE INDEX 01 00:00:00 TRACK 04 AUDIO TITLE "Jack In The Green [Live]" PERFORMER "Jethro Tull" INDEX 00 05:33:05FILE "04 - Jack In The Green [Live].wav" WAVE INDEX 01 00:00:00 TRACK 05 AUDIO TITLE "The Habanero Reel [Live]" PERFORMER "Jethro Tull" INDEX 00 02:39:60FILE "05 - The Habanero Reel [Live].wav" WAVE INDEX 01 00:00:00FILE "06 - Sweet Dream [Live].wav" WAVE TRACK 06 AUDIO TITLE "Sweet Dream [Live]" PERFORMER "Jethro Tull" INDEX 01 00:00:00 TRACK 07 AUDIO TITLE "In The Grip Of Stronger Stuff [Live]" PERFORMER "Jethro Tull" INDEX 00 04:54:31FILE "07 - In The Grip Of Stronger Stuff [Live].wav" WAVE INDEX 01 00:00:00 TRACK 08 AUDIO TITLE "Aqualung [Live]" PERFORMER "Jethro Tull" INDEX 00 02:56:09FILE "08 - Aqualung [Live].wav" WAVE INDEX 01 00:00:00 TRACK 09 AUDIO TITLE "Locomotive Breath [Live]" PERFORMER "Jethro Tull" INDEX 00 08:19:12FILE "09 - Locomotive Breath [Live].wav" WAVE INDEX 01 00:00:00FILE "10 - Living In The Past [Live].wav" WAVE TRACK 10 AUDIO TITLE "Living In The Past [Live]" PERFORMER "Jethro Tull" INDEX 01 00:00:00FILE "11 - Protect And Survive [Live].wav" WAVE TRACK 11 AUDIO TITLE "Protect And Survive [Live]" PERFORMER "Jethro Tull" INDEX 01 00:00:00FILE "12 - Nothing Is Easy [Live].wav" WAVE TRACK 12 AUDIO TITLE "Nothing Is Easy [Live]" PERFORMER "Jethro Tull" INDEX 01 00:00:00 TRACK 13 AUDIO TITLE "Wond'ring Aloud [Live]" PERFORMER "Jethro Tull" INDEX 00 05:14:09FILE "13 - Wond'ring Aloud [Live].wav" WAVE INDEX 01 00:00:00 TRACK 14 AUDIO TITLE "Life Is A Long Song [Live]" PERFORMER "Jethro Tull" INDEX 00 01:53:34FILE "14 - Life Is A Long Song [Live].wav" WAVE INDEX 01 00:00:00 TRACK 15 AUDIO TITLE "A Christmas Song [Live]" PERFORMER "Jethro Tull" INDEX 00 03:30:72FILE "15 - A Christmas Song [Live].wav" WAVE INDEX 01 00:00:00 TRACK 16 AUDIO TITLE "Cheap Day Return [Live]" PERFORMER "Jethro Tull" INDEX 00 03:03:73FILE "16 - Cheap Day Return [Live].wav" WAVE INDEX 01 00:00:00FILE "17 - Mother Goose [Live].wav" WAVE TRACK 17 AUDIO TITLE "Mother Goose [Live]" PERFORMER "Jethro Tull" INDEX 01 00:00:00 TRACK 18 AUDIO TITLE "Dot Com [Live]" PERFORMER "Jethro Tull" INDEX 00 01:56:43FILE "18 - Dot Com [Live].wav" WAVE INDEX 01 00:00:00 TRACK 19 AUDIO TITLE "Fat Man [Live]" PERFORMER "Jethro Tull" INDEX 00 04:27:20FILE "19 - Fat Man [Live].wav" WAVE INDEX 01 00:00:00 TRACK 20 AUDIO TITLE "Some Day The Sun Won't Shine For You [Live]" PERFORMER "Jethro Tull" INDEX 00 05:06:12FILE "20 - Some Day The Sun Won't Shine For You [Live].wav" WAVE INDEX 01 00:00:00 TRACK 21 AUDIO TITLE "Cheerio [Live]" PERFORMER "Jethro Tull" INDEX 00 04:11:35FILE "21 - Cheerio [Live].wav" WAVE INDEX 01 00:00:00
Exact Audio Copy V1.0 beta 2 from 29. April 2011

EAC extraction logfile from 5. December 2011, 17:33

Jethro Tull / Nothing Is Easy

Used drive : PLDS DVD+-RW DS-8A5SH Adapter: 0 ID: 0

Read mode : SecureUtilize accurate stream : YesDefeat audio cache : YesMake use of C2 pointers : No

Read offset correction : 6Overread into Lead-In and Lead-Out : NoFill up missing offset samples with silence : YesDelete leading and trailing silent blocks : NoNull samples used in CRC calculations : YesUsed interface : Native Win32 interface for Win NT & 2000Gap handling : Appended to previous track

Used output format : User Defined EncoderSelected bitrate : 256 kBit/sQuality : HighAdd ID3 tag : NoCommand line compressor : C:\Program Files (x86)\FLAC\flac.exeAdditional command line options : -8 -V -T "ARTIST=%artist%" -T "TITLE=%title%" -T "ALBUM=%albumtitle%" -T "DATE=%year%" -T "TRACKNUMBER=%tracknr%" -T "TOTALTRACKS=%numtracks%" -T "GENRE=%genre%" -T "ALBUMARTIST=%albumartist%" -T "ALBUM ARTIST=%albumartist%

TOC of the extracted CD

Track | Start | Length | Start sector | End sector --------------------------------------------------------- 1 | 0:00.00 | 5:20.49 | 0 | 24048 2 | 5:20.49 | 7:30.74 | 24049 | 57872 3 | 12:51.48 | 9:58.45 | 57873 | 102767 4 | 22:50.18 | 5:40.46 | 102768 | 128313 5 | 28:30.64 | 4:34.47 | 128314 | 148910 6 | 33:05.36 | 10:10.40 | 148911 | 194700 7 | 43:16.01 | 5:36.09 | 194701 | 219909 8 | 48:52.10 | 10:37.62 | 219910 | 267746

Track 1

Filename C:\Users\porcupine\Desktop\EAC\01 - My Sunday Feeling.wav

Pre-gap length 0:00:02.00

Peak level 91.7 % Extraction speed 2.8 X Track quality 100.0 % Test CRC 884E9FB7 Copy CRC 884E9FB7 Accurately ripped (confidence 2) [71576AD4] (AR v1) Copy OK

Track 2

Filename C:\Users\porcupine\Desktop\EAC\02 - My God.wav

Peak level 92.1 % Extraction speed 3.4 X Track quality 100.0 % Test CRC 8A6C1CAE Copy CRC 8A6C1CAE Accurately ripped (confidence 2) [1789433E] (AR v1) Copy OK

Track 3

Filename C:\Users\porcupine\Desktop\EAC\03 - With You There To Help Me.wav

Peak level 91.0 % Extraction speed 3.7 X Track quality 99.9 % Test CRC 655E8FA8 Copy CRC 655E8FA8 Accurately ripped (confidence 2) [8E96CA0C] (AR v1) Copy OK

Track 4

Filename C:\Users\porcupine\Desktop\EAC\04 - To Cry You A Song.wav

Peak level 90.9 % Extraction speed 3.6 X Track quality 99.9 % Test CRC 3BC5A2D9 Copy CRC 3BC5A2D9 Accurately ripped (confidence 2) [2FEE58CD] (AR v1) Copy OK

Track 5

Filename C:\Users\porcupine\Desktop\EAC\05 - Bouree.wav

Peak level 88.5 % Extraction speed 4.4 X Track quality 100.0 % Test CRC 6D7EED3C Copy CRC 6D7EED3C Accurately ripped (confidence 2) [2E1E85C4] (AR v1) Copy OK

Track 6

Filename C:\Users\porcupine\Desktop\EAC\06 - Dharma For One.wav

Peak level 92.1 % Extraction speed 4.7 X Track quality 99.9 % Test CRC FA9363C7 Copy CRC FA9363C7 Accurately ripped (confidence 2) [445954FB] (AR v1) Copy OK

Track 7

Filename C:\Users\porcupine\Desktop\EAC\07 - Nothing Is Easy.wav

Peak level 90.7 % Extraction speed 5.1 X Track quality 100.0 % Test CRC EFA1D78B Copy CRC EFA1D78B Accurately ripped (confidence 2) [670E55AC] (AR v1) Copy OK

Track 8

Filename C:\Users\porcupine\Desktop\EAC\08 - Medley We Used To Know For A Thousand Mothers.wav

Peak level 91.8 % Extraction speed 5.7 X Track quality 100.0 % Test CRC ED712D6E Copy CRC ED712D6E Accurately ripped (confidence 2) [D38CD121] (AR v1) Copy OK

All tracks accurately ripped

No errors occurred

End of status report

==== Log checksum E2FC71B41B037167229176AA95CD5DFE4BA32C0AF251606198A22EA77AA76996 ====
REM GENRE "Progressive Rock"REM DATE 2004REM DISCID 750DF108REM COMMENT "ExactAudioCopy v1.0b2"PERFORMER "Jethro Tull"TITLE "Nothing Is Easy"FILE "01 - My Sunday Feeling.wav" WAVE TRACK 01 AUDIO TITLE "My Sunday Feeling" PERFORMER "Jethro Tull" INDEX 01 00:00:00FILE "02 - My God.wav" WAVE TRACK 02 AUDIO TITLE "My God" PERFORMER "Jethro Tull" INDEX 01 00:00:00FILE "03 - With You There To Help Me.wav" WAVE TRACK 03 AUDIO TITLE "With You There To Help Me" PERFORMER "Jethro Tull" INDEX 01 00:00:00FILE "04 - To Cry You A Song.wav" WAVE TRACK 04 AUDIO TITLE "To Cry You A Song" PERFORMER "Jethro Tull" INDEX 01 00:00:00FILE "05 - Bouree.wav" WAVE TRACK 05 AUDIO TITLE "Bouree" PERFORMER "Jethro Tull" INDEX 01 00:00:00FILE "06 - Dharma For One.wav" WAVE TRACK 06 AUDIO TITLE "Dharma For One" PERFORMER "Jethro Tull" INDEX 01 00:00:00FILE "07 - Nothing Is Easy.wav" WAVE TRACK 07 AUDIO TITLE "Nothing Is Easy" PERFORMER "Jethro Tull" INDEX 01 00:00:00FILE "08 - Medley We Used To Know For A Thousand Mothers.wav" WAVE TRACK 08 AUDIO TITLE "Medley We Used To Know For A Thousand Mothers" PERFORMER "Jethro Tull" INDEX 01 00:00:00
[CUETools log; Date: 19.12.2012 5:28:52; Version: 2.1.4][CTDB TOCID: eOc73X.mC6t_F_FiQgzzeX5GcoE-] found.Track | CTDB Status 1 | (15/18) Accurately ripped 2 | (15/18) Accurately ripped 3 | (15/18) Accurately ripped 4 | (15/18) Accurately ripped 5 | (15/18) Accurately ripped 6 | (15/18) Accurately ripped 7 | (15/18) Accurately ripped 8 | (15/18) Accurately ripped 9 | (15/18) Accurately ripped 10 | (15/18) Accurately ripped 11 | (15/18) Accurately ripped 12 | (15/18) Accurately ripped 13 | (15/18) Accurately ripped 14 | (15/18) Accurately ripped 15 | (15/18) Accurately ripped 16 | (15/18) Accurately ripped 17 | (15/18) Accurately ripped 18 | (15/18) Accurately ripped 19 | (15/18) Accurately ripped 20 | (14/18) Accurately ripped 21 | (13/18) Accurately ripped[AccurateRip ID: 003aabe0-03850416-2e11a115] found.Track [ CRC | V2 ] Status 01 [383b44ec|71763a7e] (39+05/76) Accurately ripped 02 [118ea4e3|a8e8af46] (40+05/77) Accurately ripped 03 [9be085e0|74bab2ea] (41+05/80) Accurately ripped 04 [33ced3cf|ec5418e1] (40+05/78) Accurately ripped 05 [f8f9cda6|b841db3a] (41+05/79) Accurately ripped 06 [9f0ee31a|1de93972] (41+05/78) Accurately ripped 07 [c8740b60|4cf87b3e] (40+05/79) Accurately ripped 08 [9ec46027|8cb16c79] (40+05/76) Accurately ripped 09 [92af79aa|0c0ee865] (40+05/77) Accurately ripped 10 [93e479e1|0649df66] (40+05/79) Accurately ripped 11 [e4e9565f|bdcb9545] (41+05/80) Accurately ripped 12 [10ff476e|1a96210e] (40+05/78) Accurately ripped 13 [4ba68094|b5580cbd] (39+05/76) Accurately ripped 14 [7db4b3b6|a488fab1] (39+05/77) Accurately ripped 15 [b2fcfde5|5150c6a9] (40+05/78) Accurately ripped 16 [dfa7d58d|3895c1fe] (40+05/77) Accurately ripped 17 [f8b6398b|731c6771] (40+05/77) Accurately ripped 18 [4320e91f|dc16b0ed] (38+05/74) Accurately ripped 19 [4b286f29|3361f2db] (39+05/74) Accurately ripped 20 [04678fd0|3b803f40] (38+05/72) Accurately ripped 21 [3450437f|b4914548] (36+05/70) Accurately rippedOffsetted by -48: 01 [3a502cea] (05/76) Accurately ripped 02 [98b49f6d] (05/77) Accurately ripped 03 [53a44fc5] (05/80) Accurately ripped 04 [48ef185b] (05/78) Accurately ripped 05 [973dc75d] (05/79) Accurately ripped 06 [bc9617ad] (05/78) Accurately ripped 07 [3cfa5ad2] (05/79) Accurately ripped 08 [764bd3ee] (05/76) Accurately ripped 09 [79f7e375] (05/77) Accurately ripped 10 [4046909c] (05/79) Accurately ripped 11 [89ea6ff4] (05/80) Accurately ripped 12 [ecef03bb] (05/78) Accurately ripped 13 [a032fe6c] (05/76) Accurately ripped 14 [eed4c78a] (05/77) Accurately ripped 15 [520413b5] (05/78) Accurately ripped 16 [6e92b044] (05/77) Accurately ripped 17 [9680b40d] (05/77) Accurately ripped 18 [1e87da16] (05/74) Accurately ripped 19 [d912e365] (05/74) Accurately ripped 20 [ce6e7b61] (05/72) Accurately ripped 21 [8e7b6d52] (05/70) Accurately rippedOffsetted by -664: 01 [25b13456] (00/76) No match (V2 was not tested) 02 [48fd9fec] (00/77) No match (V2 was not tested) 03 [e0dfed2b] (00/80) No match (V2 was not tested) 04 [dc73c204] (00/78) No match (V2 was not tested) 05 [6c87a471] (00/79) No match (V2 was not tested) 06 [e4090780] (00/78) No match (V2 was not tested) 07 [b862afe1] (00/79) No match (V2 was not tested) 08 [6658d895] (00/76) No match (V2 was not tested) 09 [d1e5a8d7] (00/77) No match (V2 was not tested) 10 [c332bca1] (00/79) No match (V2 was not tested) 11 [72bbf8ae] (00/80) No match (V2 was not tested) 12 [937eadf1] (00/78) No match (V2 was not tested) 13 [77256806] (00/76) No match (V2 was not tested) 14 [f07ad4c2] (00/77) No match (V2 was not tested) 15 [230db11f] (00/78) No match (V2 was not tested) 16 [ff81a69a] (00/77) No match (V2 was not tested) 17 [5797cebb] (00/77) No match (V2 was not tested) 18 [0dcabd81] (00/74) No match (V2 was not
[CUETools log; Date: 19.12.2012 5:29:56; Version: 2.1.4][CTDB TOCID: uC9OskoVDkGdB4yoe_2rj5Mvsdc-] found.Track | CTDB Status 1 | (12/12) Accurately ripped 2 | (12/12) Accurately ripped 3 | (12/12) Accurately ripped 4 | (11/12) Accurately ripped 5 | (12/12) Accurately ripped 6 | (12/12) Accurately ripped 7 | (12/12) Accurately ripped 8 | (12/12) Accurately ripped[AccurateRip ID: 001175d1-00757d18-750df108] found.Track [ CRC | V2 ] Status 01 [71576ad4|9959430c] (02+00/40) Accurately ripped 02 [1789433e|543aa9f2] (02+00/40) Accurately ripped 03 [8e96ca0c|38783357] (02+00/40) Accurately ripped 04 [2fee58cd|7c95cbb8] (02+00/40) Accurately ripped 05 [2e1e85c4|bc8ec365] (02+00/41) Accurately ripped 06 [445954fb|63ed5b44] (02+00/41) Accurately ripped 07 [670e55ac|6b2fca90] (02+00/40) Accurately ripped 08 [d38cd121|c9add4d1] (02+00/38) Accurately rippedOffsetted by -664: 01 [89897429] (02/40) Accurately ripped 02 [d8851f56] (02/40) Accurately ripped 03 [79d4be66] (02/40) Accurately ripped 04 [a7c4f0cc] (02/40) Accurately ripped 05 [7d89d783] (02/41) Accurately ripped 06 [6e132050] (02/41) Accurately ripped 07 [4ad5c3cc] (02/40) Accurately ripped 08 [b70eacff] (02/38) Accurately rippedOffsetted by -566: 01 [4aba60ed] (02/40) Accurately ripped 02 [1be9c49c] (02/40) Accurately ripped 03 [a85ec04f] (02/40) Accurately ripped 04 [ab94f897] (02/40) Accurately ripped 05 [9c1a5aae] (02/41) Accurately ripped 06 [02c6178a] (02/41) Accurately ripped 07 [f7b8d8e9] (02/40) Accurately ripped 08 [2d71ffab] (02/38) Accurately rippedOffsetted by 6: 01 [e4336b74] (06/40) Accurately ripped 02 [6520808f] (06/40) Accurately ripped 03 [4e86fbe2] (06/40) Accurately ripped 04 [8bc80062] (06/40) Accurately ripped 05 [3a6e313c] (07/41) Accurately ripped 06 [24a6c897] (07/41) Accurately ripped 07 [bcbedac0] (06/40) Accurately ripped 08 [c8c7d581] (05/38) Accurately rippedOffsetted by 98: 01 [2e845604] (14/40) Accurately ripped 02 [0a522f7e] (14/40) Accurately ripped 03 [90612c49] (14/40) Accurately ripped 04 [5f706970] (14/40) Accurately ripped 05 [c8a65723] (14/41) Accurately ripped 06 [5e547773] (14/41) Accurately ripped 07 [ef331bf1] (14/40) Accurately ripped 08 [628a7e89] (14/38) Accurately rippedOffsetted by 664: 01 [57734a23] (03/40) Accurately ripped 02 [9c95f1b4] (03/40) Accurately ripped 03 [cf7b6c15] (03/40) Accurately ripped 04 [2ca16631] (03/40) Accurately ripped 05 [0dd5c214] (03/41) Accurately ripped 06 [0c1ed1df] (03/41) Accurately ripped 07 [8701cdc8] (03/40) Accurately ripped 08 [40499547] (02/38) Accurately rippedOffsetted by 670: 01 [b93fe26c] (04/40) Accurately ripped 02 [8a0ba7d2] (04/40) Accurately ripped 03 [835bd7d4] (04/40) Accurately ripped 04 [d3dbfb20] (04/40) Accurately ripped 05 [5ab5e116] (04/41) Accurately ripped 06 [58cc4565] (04/41) Accurately ripped 07 [ff724751] (04/40) Accurately ripped 08 [61b174f1] (04/38) Accurately rippedOffsetted by 1142: 01 [cb40cfdb] (03/40) Accurately ripped 02 [dd7d5d38] (03/40) Accurately ripped 03 [032d1fc7] (03/40) Accurately ripped 04 [e718b4d0] (03/40) Accurately ripped 05 [be5296eb] (03/41) Accurately ripped 06 [ad430829] (03/41) Accurately ripped 07 [f0a00501] (03/40) Accurately ripped 08 [25e9aa7c] (03/38) Accurately ripped

Track Peak [ CRC32 ] [W/O NULL] [ LOG ] -- 92,1 [6B898B31] [AA54E724] 01 91,7 [884E9FB7] [9AC0FCD3] CRC32 02 92,1 [8A6C1CAE] [254AB198] CRC32 03 91,0 [655E8FA8] [FA283919] CRC32 04 90,9 [3BC5A2D9] [537FAB14] CRC32 05 88,5 [6D7EED3C] [FD7D8D49] CRC32 06 92,1 [FA9363C7] [69D5040E] CRC32 07 90,7 [EFA1D78B] [4CB95084] CRC32 08 91,8 [ED712D6E] [030E4203] CRC32
источник: сеть

Трекер:  [ 23-Дек-2012 11:56 ]

  

Скачать .torrent

Размер .torrent файла 19 KB


Размер: 844 MB
Хэш (hash) релиза: 7de1a32ab38ae73e082abf3132e49bd402d4319e

Еще никто не оставлял запись к записи скачать торрент Jethro Tull "Aqualung" - Living with the Past . Будь первым!

!Обратная связь