Скачать через торрент музыку U.K. - U.K. - 1978, FLAC бесплатно без регистрации torrent

Если у вас наблюдаются проблемы со скриншотами, переходом по ссылками, скачиванием торрентов - проблемы в блокировщике рекламы AdBlock. #хорошегоДня!


Статистика раздачи
Размер:  289 MB   |    Зарегистрирован:  4 года 11 месяцев   |    .torrent скачан:  13 раз   |   
Раздают:  1  
   
Загрузка...
 
Автор Сообщение

Galfimbul

avatar Galfimbul


U.K. / U.K.

Жанр: Progressive & Art-Rock
Страна-производитель диска: W. Germany
Год издания: 1978
Издатель (лейбл): EG Records Ltd.
Номер по каталогу: EGCD 35
Аудиокодек: FLAC (*.flac)
Тип рипа: image+.cue
Битрейт аудио: lossless
Продолжительность: 0:46:33.08 h:m:s.f
Источник (релизер): pazanenok
Наличие сканов в содержимом раздачи: нет
Треклист:
01. In The Dead Of Night
02. By The Light Of Day
03. Presto Vivace And Reprise
04. Thirty Years
05. Alaska
06. Time To Kill
07. Nevermore
08. Mental Medication
Exact Audio Copy V0.99 prebeta 5 from 4. May 2009

Отчёт EAC об извлечении, выполненном 19. декабря 2012, 18:18

U.K. / U.K.

Дисковод: HL-DT-STDVDRAM GH22NS50 Adapter: 2 ID: 1

Режим чтения : ДостоверностьИспользование точного потока : ДаОтключение кэша аудио : ДаИспользование указателей C2 : Нет

Коррекция смещения при чтении : 667Способность читать области Lead-in и Lead-out : НетЗаполнение пропущенных сэмплов тишиной : ДаУдаление блоков с тишиной в начале и конце : НетПри вычислениях CRC использовались нулевые сэмплы : ДаИнтерфейс : Встроенный Win32-интерфейс для Win NT/2000

Выходной формат : Пользовательский кодировщикВыбранный битрейт : 768 kBit/sКачество : ВысокийДобавление ID3-тэга : НетУтилита сжатия : C:\Program Files\Exact Audio Copy\FLAC\FLAC.EXEДополнительные параметры : -6 -V -T "ARTIST=%a" -T "TITLE=%t" -T "ALBUM=%g" -T "DATE=%y" -T "TRACKNUMBER=%n" -T "GENRE=%m" -T "COMMENT=%e" %s -o %d

TOC извлечённого CD

Трек | Старт | Длительность | Начальный сектор | Конечный сектор --------------------------------------------------------------------- 1 | 0:00.32 | 5:34.03 | 32 | 25084 2 | 5:34.35 | 4:29.57 | 25085 | 45316 3 | 10:04.17 | 3:05.55 | 45317 | 59246 4 | 13:09.72 | 8:08.40 | 59247 | 95886 5 | 21:18.37 | 4:39.23 | 95887 | 116834 6 | 25:57.60 | 4:57.10 | 116835 | 139119 7 | 30:54.70 | 8:12.12 | 139120 | 176031 8 | 39:07.07 | 7:26.33 | 176032 | 209514

Характеристики диапазона извлечения и сообщения об ошибках

Выбранный диапазон

Имя файла E:\РАЗДАЧИ\U.K. - U.K. - 1978\U.K. - U.K..wav

Пиковый уровень 97.7 % Качество диапазона 100.0 % CRC копии 1C78D2AA Копирование... OK

Ошибок не произошло

AccurateRip: сводка

Трек 1 точное извлечение (доверие 6) [072A3E04]Трек 2 точное извлечение (доверие 6) [C5B71F27]Трек 3 точное извлечение (доверие 6) [B948CF6D]Трек 4 точное извлечение (доверие 6) [8A67C65C]Трек 5 точное извлечение (доверие 6) [7CDD3C34]Трек 6 точное извлечение (доверие 6) [9897A54E]Трек 7 точное извлечение (доверие 6) [DB014779]Трек 8 точное извлечение (доверие 6) [6C8282B6]

Все треки извлечены точно

Конец отчёта
Доп. информация: Cканера нет.
Диск из личной коллекции.

Трекер:  [ 23-Дек-2012 11:55 ]

  

Скачать .torrent

Размер .torrent файла 12 KB


Размер: 289 MB
Хэш (hash) релиза: a8eeda9eeedd45a002d719f6d123bc924fade35d

Торренты, похожие на U.K. - U.K. - 1978, FLAC скачать торрент

Форум Название Автор Размер S L Добавлен
Rосk | Mеtаl | Аltеrnаtivе, Рunk, Indереndеnt (losslеss) ·· (Progressive Rock) U.K. (UK) /Eddie Jobson, John Wetton, Allan Holdsworth, Bill Bruford, Terry Bozzio/ - Официальная дискография (первопрессы) - 3 альбома (1978-1979), FLAC (image+.cue), lossless Galfimbul 940446014897 MB 0 0 1297858752

15:19

16-Фев-11

Еще никто не оставлял запись к записи скачать торрент U.K. - U.K. - 1978, FLAC . Будь первым!

!Обратная связь