Скачать через торрент музыку Urga - Discography бесплатно без регистрации torrent

Если у вас наблюдаются проблемы со скриншотами, переходом по ссылками, скачиванием торрентов - проблемы в блокировщике рекламы AdBlock. #хорошегоДня!


Статистика раздачи
Размер:  545 MB   |    Зарегистрирован:  4 года 9 месяцев   |    .torrent скачан:  13 раз   |   
Раздают:  1  
   
Загрузка...
 
Автор Сообщение

Galfimbul

avatar Galfimbul


Urga

Жанр: EthnoPunk, Folk-Punk, Alternative
Страна-производитель диска: Sweden
Год издания: 1998-2000
Страна: Sweden
Аудиокодек: APE (*.ape)
Тип рипа: image+.cue
Битрейт аудио: lossless
Источник (релизер): Собственная коллекция
Наличие сканов в содержимом раздачи: нет

Открыл тему в разделе 'Folk-Rock', поскольку многих этно-панков зачем-то сюда "снесли". Ну и, раз Gogol Bordello теперь - фолк-рок, как бы это ни звучало, значит, и Urga должна быть где-то рядом...
1. Urga - Etanol (3:00)
2. Urga - Gato (3:32)
3. Urga - Ajde Jano (3:54)
4. Urga - Plakat (4:22)
5. Urga - Dema Banka (3:47)
6. Urga - Faron Raudi (4:51)
7. Urga - Helmo (3:52)
8. Urga - Dadre (4:31)
9. Urga - Hin Jata (3:23)
10. Urga - Allo Manne (3:18)
Exact Audio Copy V1.0 beta 3 from 29. August 2011

EAC extraction logfile from 19. December 2012, 12:36

Urga / Etanol

Used drive : PIONEER BD-RW BDR-206D Adapter: 2 ID: 0

Read mode : Secure
Utilize accurate stream : Yes
Defeat audio cache : Yes
Make use of C2 pointers : No

Read offset correction : 667
Overread into Lead-In and Lead-Out : No
Fill up missing offset samples with silence : Yes
Delete leading and trailing silent blocks : No
Null samples used in CRC calculations : Yes
Used interface : Native Win32 interface for Win NT & 2000

Used output format : Internal WAV Routines
Sample format : 44.100 Hz; 16 Bit; Stereo

TOC of the extracted CD

Track | Start | Length | Start sector | End sector
---------------------------------------------------------
1 | 0:00.00 | 3:00.35 | 0 | 13534
2 | 3:00.35 | 3:32.27 | 13535 | 29461
3 | 6:32.62 | 3:54.68 | 29462 | 47079
4 | 10:27.55 | 4:22.17 | 47080 | 66746
5 | 14:49.72 | 3:47.53 | 66747 | 83824
6 | 18:37.50 | 4:51.57 | 83825 | 105706
7 | 23:29.32 | 3:52.60 | 105707 | 123166
8 | 27:22.17 | 4:31.60 | 123167 | 143551
9 | 31:54.02 | 3:23.18 | 143552 | 158794
10 | 35:17.20 | 3:18.60 | 158795 | 173704

Range status and errors

Selected range

Filename F:\Outbound\Urga\Urga - 1998 - Etanol\Urga - Etanol.wav

Peak level 97.5 %
Extraction speed 6.6 X
Range quality 99.9 %
Copy CRC 732E59FF
Copy OK

No errors occurred

AccurateRip summary

Track 1 accurately ripped (confidence 2) [2072869D] (AR v1)
Track 2 accurately ripped (confidence 2) [EADF8B37] (AR v1)
Track 3 accurately ripped (confidence 2) [8BE8155F] (AR v1)
Track 4 accurately ripped (confidence 2) [D5DEB203] (AR v1)
Track 5 accurately ripped (confidence 2) [0640B6BE] (AR v1)
Track 6 accurately ripped (confidence 2) [684EA57D] (AR v1)
Track 7 accurately ripped (confidence 2) [C898F8EF] (AR v1)
Track 8 accurately ripped (confidence 2) [26AB1926] (AR v1)
Track 9 accurately ripped (confidence 2) [1767A0F8] (AR v1)
Track 10 accurately ripped (confidence 2) [6409E2A9] (AR v1)

All tracks accurately ripped

End of status report
1. Urga - Raggamoda (3:02)
2. Urga - Too Late (4:45)
3. Urga - Urgasm (3:42)
4. Urga - Escape (4:08)
5. Urga - Wild Card (3:26)
6. Urga - Loco (3:51)
7. Urga - Maimo (4:01)
8. Urga - My Dragon (5:01)
9. Urga - Cold (4:15)
10. Urga - Curious Crowds (5:05)
Exact Audio Copy V1.0 beta 3 from 29. August 2011

EAC extraction logfile from 19. December 2012, 13:01

Urga / Urgasm

Used drive : PIONEER BD-RW BDR-206D Adapter: 2 ID: 0

Read mode : Secure
Utilize accurate stream : Yes
Defeat audio cache : Yes
Make use of C2 pointers : No

Read offset correction : 667
Overread into Lead-In and Lead-Out : No
Fill up missing offset samples with silence : Yes
Delete leading and trailing silent blocks : No
Null samples used in CRC calculations : Yes
Used interface : Native Win32 interface for Win NT & 2000

Used output format : Internal WAV Routines
Sample format : 44.100 Hz; 16 Bit; Stereo

TOC of the extracted CD

Track | Start | Length | Start sector | End sector
---------------------------------------------------------
1 | 0:00.00 | 3:02.40 | 0 | 13689
2 | 3:02.40 | 4:45.37 | 13690 | 35101
3 | 7:48.02 | 3:42.63 | 35102 | 51814
4 | 11:30.65 | 4:08.60 | 51815 | 70474
5 | 15:39.50 | 3:26.40 | 70475 | 85964
6 | 19:06.15 | 3:51.25 | 85965 | 103314
7 | 22:57.40 | 4:01.00 | 103315 | 121389
8 | 26:58.40 | 5:01.00 | 121390 | 143964
9 | 31:59.40 | 4:15.10 | 143965 | 163099
10 | 36:14.50 | 5:05.24 | 163100 | 185998

Range status and errors

Selected range

Filename F:\Outbound\Urga\Urga - 2000 - Urgasm\Urga - Urgasm.wav

Peak level 98.8 %
Extraction speed 6.8 X
Range quality 100.0 %
Copy CRC CC600135
Copy OK

No errors occurred

AccurateRip summary

Track 1 accurately ripped (confidence 4) [5B2E9A9C] (AR v1)
Track 2 accurately ripped (confidence 4) [16351EC0] (AR v1)
Track 3 accurately ripped (confidence 4) [CBA979B8] (AR v1)
Track 4 accurately ripped (confidence 4) [6CD045BB] (AR v1)
Track 5 accurately ripped (confidence 4) [62DDBEB7] (AR v1)
Track 6 accurately ripped (confidence 4) [4D5A9596] (AR v1)
Track 7 accurately ripped (confidence 4) [7F12A7AD] (AR v1)
Track 8 accurately ripped (confidence 4) [EC8E0A95] (AR v1)
Track 9 accurately ripped (confidence 4) [29766E80] (AR v1)
Track 10 accurately ripped (confidence 4) [90E307EA] (AR v1)

All tracks accurately ripped

End of status report
Urga - малоизвестный и загадочный коллектив из Стокгольма, пишущий песни на своем собственном, придуманном урганском языке и вплетающий в свою музыку элементы балканских и украинских мелодий, замешанных на ска, панке и дабе. За свою короткую, но яркую историю, группа успела выпустить лишь два альбома, и вскоре после этого распалась. Наверное, потому что Urga - шведы, их часто сравнивают с такими коллективами, как Garmarna, хотя мне кажется, что похожего у них очень мало. Альбом 'Etanol' (1998), я считаю, куда ближе по стилистике к творчеству американских "цыган" из Gogol Bordello. Второй (и последний) альбом 'Urgasm' (2000) больше закручен в сторону даба.

Информации об Urga осталось - раз, два и обчелся. Известно лишь, что они сотрудничали с передвижным цирком Cirkus Cirkör, участвуя как в музыкальном оформлении номеров, так и в самих представлениях. Будет очень интересно, если кто-нибудь сможет дополнить приведенную информацию, предоставив ссылку на источник.

Состав:
Irya Gmeyner - Lead Vocals, Backing Vocals
Savannah Agger - Tenor Sax, Baritone Sax, Vocals
Hadrian Prett - Violins, Viola
Magnus Larsson - Bass, Acoustic Bass
Jouni Haapala - Percussion
Stefan Schöning - Drums
Henrik Ekberg - Guitars & Electric Screwdriver


Трекер:  [ 23-Дек-2012 11:55 ]

  

Скачать .torrent

Размер .torrent файла 11 KB


Размер: 545 MB
Хэш (hash) релиза: 1f99f8f6c649fa20fd3b2e965bf14faeacff5b0f

Еще никто не оставлял запись к записи скачать торрент Urga - Discography . Будь первым!

!Обратная связь