Скачать через торрент музыку Rebel State - Outlaw Country - 2008, APE бесплатно без регистрации torrent

Если у вас наблюдаются проблемы со скриншотами, переходом по ссылками, скачиванием торрентов - проблемы в блокировщике рекламы AdBlock. #хорошегоДня!


Статистика раздачи
Размер:  293 MB   |    Зарегистрирован:  4 года 7 месяцев   |    .torrent скачан:  12 раз   |   
Раздают:  1  
   
Загрузка...
 
Автор Сообщение

Galfimbul

avatar Galfimbul


Rebel State / Outlaw Country

Жанр: Southern Rock/Hard Rock
Год издания: 2008
Аудиокодек: APE (*.ape)
Тип рипа: image+.cue
Битрейт аудио: lossless
Источник (релизер): emule
Наличие сканов в содержимом раздачи: да
Треклист:
01 Midnight Train 5:25
02 Trouble 4:28
03 Bichless World 3:48
04 Waylon 6:56
05 Lusy Is A Rawkin' 3:17
06 God Knows 4:43
07 Curved Beauty 3:03
08 She's Gone 5:04
09 Red Fire 3:44
10 Toxic Woman 8:46
Exact Audio Copy V1.0 beta 2 from 29. April 2011

Отчёт EAC об извлечении, выполненном 22. декабря 2011, 17:41

Rebel State / Outlaw Country

Дисковод: _NEC DV-5800C Adapter: 3 ID: 1

Режим чтения : Достоверность
Использование точного потока : Да
Отключение кэша аудио : Да
Использование указателей C2 : Нет

Коррекция смещения при чтении : 12
Способность читать области Lead-in и Lead-out : Нет
Заполнение пропущенных сэмплов тишиной : Да
Удаление блоков с тишиной в начале и конце : Нет
При вычислениях CRC использовались нулевые сэмплы : Нет
Интерфейс : Встроенный Win32-интерфейс для Win NT/2000

Выходной формат : Внутренние WAV-операции
Формат сэмплов : 44.100 Гц; 16 бит; стерео

TOC извлечённого CD

Трек | Старт | Длительность | Начальный сектор | Конечный сектор
---------------------------------------------------------------------
1 | 0:00.00 | 5:25.73 | 0 | 24447
2 | 5:25.73 | 4:28.20 | 24448 | 44567
3 | 9:54.18 | 3:48.22 | 44568 | 61689
4 | 13:42.40 | 6:56.27 | 61690 | 92916
5 | 20:38.67 | 3:17.19 | 92917 | 107710
6 | 23:56.11 | 4:43.18 | 107711 | 128953
7 | 28:39.29 | 3:03.68 | 128954 | 142746
8 | 31:43.22 | 5:04.00 | 142747 | 165546
9 | 36:47.22 | 3:44.41 | 165547 | 182387
10 | 40:31.63 | 8:46.25 | 182388 | 221862

Характеристики диапазона извлечения и сообщения об ошибках

Выбранный диапазон

Имя файла D:\Rebel State - Outlaw Country.wav

Пиковый уровень 100.0 %
Скорость извлечения 8.2 X
Качество диапазона 100.0 %
CRC копии E49089DF
Копирование... OK

Ошибок не произошло

AccurateRip: сводка

Трек 1 : извлечено точно (доверие 1) [6785CF41] (AR v1)
Трек 2 : извлечено точно (доверие 1) [46751CD0] (AR v1)
Трек 3 : извлечено точно (доверие 1) [B962735E] (AR v1)
Трек 4 : извлечено точно (доверие 1) [FB19442F] (AR v1)
Трек 5 : извлечено точно (доверие 1) [E69BBAB7] (AR v1)
Трек 6 : извлечено точно (доверие 1) [A6A6A3D0] (AR v1)
Трек 7 : извлечено точно (доверие 1) [D8E3D5C3] (AR v1)
Трек 8 : извлечено точно (доверие 1) [60312DFD] (AR v1)
Трек 9 : извлечено точно (доверие 1) [243CBC03] (AR v1)
Трек 10 : извлечено точно (доверие 1) [126B6C0C] (AR v1)

Все треки извлечены точно

Конец отчёта
REM GENRE "Southern Rock"
REM DATE 2008
REM DISCID 7A0B8E0A
REM COMMENT "ExactAudioCopy v1.0b2"
PERFORMER "Rebel State"
TITLE "Outlaw Country"
FILE "Rebel State - Outlaw Country.wav" WAVE
TRACK 01 AUDIO
TITLE "Midnight Train"
PERFORMER "Rebel State"
FLAGS DCP
INDEX 01 00:00:00
TRACK 02 AUDIO
TITLE "Trouble"
PERFORMER "Rebel State"
FLAGS DCP
INDEX 01 05:25:73
TRACK 03 AUDIO
TITLE "Bichless World"
PERFORMER "Rebel State"
FLAGS DCP
INDEX 01 09:54:18
TRACK 04 AUDIO
TITLE "Waylon"
PERFORMER "Rebel State"
FLAGS DCP
INDEX 01 13:42:40
TRACK 05 AUDIO
TITLE "Lusy Is A Rawkin'"
PERFORMER "Rebel State"
FLAGS DCP
INDEX 01 20:38:67
TRACK 06 AUDIO
TITLE "God Knows"
PERFORMER "Rebel State"
FLAGS DCP
INDEX 01 23:56:11
TRACK 07 AUDIO
TITLE "Curved Beauty"
PERFORMER "Rebel State"
FLAGS DCP
INDEX 01 28:39:29
TRACK 08 AUDIO
TITLE "She's Gone"
PERFORMER "Rebel State"
FLAGS DCP
INDEX 01 31:43:22
TRACK 09 AUDIO
TITLE "Red Fire"
PERFORMER "Rebel State"
FLAGS DCP
INDEX 01 36:47:22
TRACK 10 AUDIO
TITLE "Toxic Woman"
PERFORMER "Rebel State"
FLAGS DCP
INDEX 01 40:31:63
-----------------------

DON'T MODIFY THIS FILE

-----------------------

PERFORMER: auCDtect Task Manager, ver. 1.5.1RC6 build 1.5.1.7
Copyright (c) 2008-2010 y-soft. All rights reserved
http://y-soft.org

ANALYZER: auCDtect: CD records authenticity detector, version 0.8.2
Copyright (c) 2004 Oleg Berngardt. All rights reserved.
Copyright (c) 2004 Alexander Djourik. All rights reserved.

FILE: Rebel State - Outlaw Country.ape
Size: 304540440 Hash: FF5B357955C924C877D34FC54DE7EE9D Accuracy: -m0
Conclusion: CDDA 99%
Signature: DD79A088A35F48F7100BFF903A6963D8EA2E7877


Трекер:  [ 23-Дек-2012 11:55 ]

  

Скачать .torrent

Размер .torrent файла 12 KB


Размер: 293 MB
Хэш (hash) релиза: b82170f5ac0312d832e3a9cd28c41564a9885bd5

Еще никто не оставлял запись к записи скачать торрент Rebel State - Outlaw Country - 2008, APE . Будь первым!

!Обратная связь