Скачать через торрент музыку Alligator Stew - A First Taste Of - 2001, APE бесплатно без регистрации torrent

Если у вас наблюдаются проблемы со скриншотами, переходом по ссылками, скачиванием торрентов - проблемы в блокировщике рекламы AdBlock. #хорошегоДня!


Статистика раздачи
Размер:  328 MB   |    Зарегистрирован:  4 года 7 месяцев   |    .torrent скачан:  18 раз   |   
Раздают:  1  
   
Загрузка...
 
Автор Сообщение

Galfimbul

avatar Galfimbul


Alligator Stew / A First Taste Of

Жанр: Southern Rock/Country Rock
Год издания: 2001
Аудиокодек: APE (*.ape)
Тип рипа: image+.cue
Битрейт аудио: lossless
Источник (релизер): emule
Наличие сканов в содержимом раздачи: да
Треклист:
01 Louisiana Man 4:04
02 Shiner 5:46
03 Doesn't Really Matter 3:05
04 Blood Money 3:32
05 Four Winds 4:04
06 One Time To Long 4:30
07 Two Weels 4:03
08 Rose Thron Bed 3:15
09 Voodoo Spell 2:37
10 California Cowboy 4:08
11 You Gotta Give By 3:25
12 Mad Dog Saloon 3:12
13 Blood Money (Acoustic) 3:37
Exact Audio Copy V1.0 beta 2 from 29. April 2011

Отчёт EAC об извлечении, выполненном 18. декабря 2011, 1:53

Alligator Stew / A First Taste Of Alligator Stew

Дисковод: _NEC DV-5800C Adapter: 3 ID: 1

Режим чтения : Достоверность
Использование точного потока : Да
Отключение кэша аудио : Да
Использование указателей C2 : Нет

Коррекция смещения при чтении : 12
Способность читать области Lead-in и Lead-out : Нет
Заполнение пропущенных сэмплов тишиной : Да
Удаление блоков с тишиной в начале и конце : Нет
При вычислениях CRC использовались нулевые сэмплы : Нет
Интерфейс : Встроенный Win32-интерфейс для Win NT/2000

Выходной формат : Внутренние WAV-операции
Формат сэмплов : 44.100 Гц; 16 бит; стерео

TOC извлечённого CD

Трек | Старт | Длительность | Начальный сектор | Конечный сектор
---------------------------------------------------------------------
1 | 0:00.00 | 4:04.59 | 0 | 18358
2 | 4:04.59 | 5:46.21 | 18359 | 44329
3 | 9:51.05 | 3:05.07 | 44330 | 58211
4 | 12:56.12 | 3:32.73 | 58212 | 74184
5 | 16:29.10 | 4:04.06 | 74185 | 92490
6 | 20:33.16 | 4:30.07 | 92491 | 112747
7 | 25:03.23 | 4:03.44 | 112748 | 131016
8 | 29:06.67 | 3:15.44 | 131017 | 145685
9 | 32:22.36 | 2:37.37 | 145686 | 157497
10 | 34:59.73 | 4:08.07 | 157498 | 176104
11 | 39:08.05 | 3:25.07 | 176105 | 191486
12 | 42:33.12 | 3:12.13 | 191487 | 205899
13 | 45:45.25 | 3:37.57 | 205900 | 222231

Характеристики диапазона извлечения и сообщения об ошибках

Выбранный диапазон

Имя файла D:\Alligator Stew - A First Taste Of Alligator Stew.wav

Пиковый уровень 100.0 %
Скорость извлечения 8.5 X
Качество диапазона 99.9 %
CRC копии 246CF181
Копирование... OK

Ошибок не произошло

AccurateRip: сводка

Трек 1 : извлечено точно (доверие 7) [5BD4BDF9] (AR v1)
Трек 2 : извлечено точно (доверие 7) [FE862C10] (AR v1)
Трек 3 : извлечено точно (доверие 7) [BE08E6BA] (AR v1)
Трек 4 : извлечено точно (доверие 7) [7BAC5A81] (AR v1)
Трек 5 : извлечено точно (доверие 7) [C8428ECE] (AR v1)
Трек 6 : извлечено точно (доверие 7) [7C773A11] (AR v1)
Трек 7 : извлечено точно (доверие 7) [EF3D4796] (AR v1)
Трек 8 : извлечено точно (доверие 7) [08190280] (AR v1)
Трек 9 : извлечено точно (доверие 7) [CC2FD1F4] (AR v1)
Трек 10 : извлечено точно (доверие 7) [3B945409] (AR v1)
Трек 11 : извлечено точно (доверие 7) [E6D2609C] (AR v1)
Трек 12 : извлечено точно (доверие 7) [4894E76C] (AR v1)
Трек 13 : извлечено точно (доверие 6) [AEB23DB9] (AR v1)

Все треки извлечены точно

Конец отчёта
REM GENRE "Southern Rock"
REM DATE 2001
REM DISCID B70B930D
REM COMMENT "ExactAudioCopy v1.0b2"
PERFORMER "Alligator Stew"
TITLE "A First Taste Of Alligator Stew"
FILE "Alligator Stew - A First Taste Of Alligator Stew.wav" WAVE
TRACK 01 AUDIO
TITLE "Louisiana Man"
PERFORMER "Alligator Stew"
INDEX 01 00:00:00
TRACK 02 AUDIO
TITLE "Shiner"
PERFORMER "Alligator Stew"
INDEX 00 03:58:59
INDEX 01 04:04:59
TRACK 03 AUDIO
TITLE "Doesn't Really Matter"
PERFORMER "Alligator Stew"
INDEX 00 09:45:05
INDEX 01 09:51:05
TRACK 04 AUDIO
TITLE "Blood Money"
PERFORMER "Alligator Stew"
INDEX 00 12:50:12
INDEX 01 12:56:12
TRACK 05 AUDIO
TITLE "Four Winds"
PERFORMER "Alligator Stew"
INDEX 00 16:23:12
INDEX 01 16:29:10
TRACK 06 AUDIO
TITLE "One Time Too Long"
PERFORMER "Alligator Stew"
INDEX 00 20:27:16
INDEX 01 20:33:16
TRACK 07 AUDIO
TITLE "Two Wheels"
PERFORMER "Alligator Stew"
INDEX 00 24:57:26
INDEX 01 25:03:23
TRACK 08 AUDIO
TITLE "Rose Thorn Red"
PERFORMER "Alligator Stew"
INDEX 00 29:00:67
INDEX 01 29:06:67
TRACK 09 AUDIO
TITLE "Voodoo Spell"
PERFORMER "Alligator Stew"
INDEX 00 32:16:38
INDEX 01 32:22:36
TRACK 10 AUDIO
TITLE "California Cowboy"
PERFORMER "Alligator Stew"
INDEX 00 34:53:73
INDEX 01 34:59:73
TRACK 11 AUDIO
TITLE "You Gotta Give"
PERFORMER "Alligator Stew"
INDEX 00 39:02:05
INDEX 01 39:08:05
TRACK 12 AUDIO
TITLE "Mad Dog Saloon"
PERFORMER "Alligator Stew"
INDEX 00 42:27:12
INDEX 01 42:33:12
TRACK 13 AUDIO
TITLE "Blood Money (Acoustic)"
PERFORMER "Alligator Stew"
INDEX 00 45:39:25
INDEX 01 45:45:25
-----------------------

DON'T MODIFY THIS FILE

-----------------------

PERFORMER: auCDtect Task Manager, ver. 1.5.1RC6 build 1.5.1.7
Copyright (c) 2008-2010 y-soft. All rights reserved
http://y-soft.org

ANALYZER: auCDtect: CD records authenticity detector, version 0.8.2
Copyright (c) 2004 Oleg Berngardt. All rights reserved.
Copyright (c) 2004 Alexander Djourik. All rights reserved.

FILE: Alligator Stew - A First Taste Of Alligator Stew.ape
Size: 336641212 Hash: 4D1A496C4C634AFE17EE75C5A7AE36D0 Accuracy: -m0
Conclusion: CDDA 100%
Signature: D8A4583AFF14CA41E7E7BC3425B6BAB60AE4B91E


Трекер:  [ 23-Дек-2012 11:55 ]

  

Скачать .torrent

Размер .torrent файла 14 KB


Размер: 328 MB
Хэш (hash) релиза: 4414dacae320f442011ad9e16960dc57c9b857f5

Еще никто не оставлял запись к записи скачать торрент Alligator Stew - A First Taste Of - 2001, APE . Будь первым!

!Обратная связь