Скачать через торрент музыку Rambler - First Things First - 2004, APE бесплатно без регистрации torrent

Если у вас наблюдаются проблемы со скриншотами, переходом по ссылками, скачиванием торрентов - проблемы в блокировщике рекламы AdBlock. #хорошегоДня!


Статистика раздачи
Размер:  281 MB   |    Зарегистрирован:  4 года 10 месяцев   |    .torrent скачан:  21 раз   |   
Раздают:  1  
   
Загрузка...
 
Автор Сообщение

Galfimbul

avatar Galfimbul


Rambler / First Things First

Жанр: Southern Rock
Год издания: 2004
Аудиокодек: APE (*.ape)
Тип рипа: image+.cue
Битрейт аудио: lossless
Источник (релизер): emule
Наличие сканов в содержимом раздачи: да
Треклист:
01 Hard Times 4:06
02 Whiskey Drinkin Eyes 4:38
03 Drifter 4:17
04 Travelin Man 4:05
05 2nd Time for Romance 3:38
06 Intoxicated 4:29
07 Skynyrd Fantasy 4:09
08 Liqour in the Front , Poker in the Rear 4:24
09 Missin You 3:40
10 Blame It All on Me 3:55
Exact Audio Copy V1.0 beta 2 from 29. April 2011

Отчёт EAC об извлечении, выполненном 23. декабря 2011, 17:41

Rambler / First Things First

Дисковод: _NEC DV-5800C Adapter: 3 ID: 1

Режим чтения : Достоверность
Использование точного потока : Да
Отключение кэша аудио : Да
Использование указателей C2 : Нет

Коррекция смещения при чтении : 12
Способность читать области Lead-in и Lead-out : Нет
Заполнение пропущенных сэмплов тишиной : Да
Удаление блоков с тишиной в начале и конце : Нет
При вычислениях CRC использовались нулевые сэмплы : Нет
Интерфейс : Встроенный Win32-интерфейс для Win NT/2000

Выходной формат : Внутренние WAV-операции
Формат сэмплов : 44.100 Гц; 16 бит; стерео

TOC извлечённого CD

Трек | Старт | Длительность | Начальный сектор | Конечный сектор
---------------------------------------------------------------------
1 | 0:00.00 | 4:06.15 | 0 | 18464
2 | 4:06.15 | 4:38.46 | 18465 | 39360
3 | 8:44.61 | 4:17.14 | 39361 | 58649
4 | 13:02.00 | 4:05.47 | 58650 | 77071
5 | 17:07.47 | 3:38.16 | 77072 | 93437
6 | 20:45.63 | 4:29.42 | 93438 | 113654
7 | 25:15.30 | 4:09.56 | 113655 | 132385
8 | 29:25.11 | 4:24.44 | 132386 | 152229
9 | 33:49.55 | 3:40.65 | 152230 | 168794
10 | 37:30.45 | 3:55.50 | 168795 | 186469

Характеристики диапазона извлечения и сообщения об ошибках

Выбранный диапазон

Имя файла D:\Rambler - First Things First.wav

Пиковый уровень 100.0 %
Скорость извлечения 8.2 X
Качество диапазона 100.0 %
CRC копии AB62FE96
Копирование... OK

Ошибок не произошло

AccurateRip: сводка

Трек 1 отсутствует в базе данных
Трек 2 отсутствует в базе данных
Трек 3 отсутствует в базе данных
Трек 4 отсутствует в базе данных
Трек 5 отсутствует в базе данных
Трек 6 отсутствует в базе данных
Трек 7 отсутствует в базе данных
Трек 8 отсутствует в базе данных
Трек 9 отсутствует в базе данных
Трек 10 отсутствует в базе данных

Ни одного трека нет в базе AccurateRip

Конец отчёта
REM GENRE "Southern Rock"
REM DATE 2004
REM DISCID 7E09B60A
REM COMMENT "ExactAudioCopy v1.0b2"
PERFORMER "Rambler"
TITLE "First Things First"
FILE "Rambler - First Things First.wav" WAVE
TRACK 01 AUDIO
TITLE "Hard Times"
PERFORMER "Rambler"
INDEX 01 00:00:00
TRACK 02 AUDIO
TITLE "Whiskey Drinkin Eyes"
PERFORMER "Rambler"
INDEX 01 04:06:15
TRACK 03 AUDIO
TITLE "Drifter"
PERFORMER "Rambler"
INDEX 01 08:44:61
TRACK 04 AUDIO
TITLE "Travelin Man"
PERFORMER "Rambler"
INDEX 01 13:02:00
TRACK 05 AUDIO
TITLE "2nd Time for Romance"
PERFORMER "Rambler"
INDEX 01 17:07:47
TRACK 06 AUDIO
TITLE "Intoxicated"
PERFORMER "Rambler"
INDEX 01 20:45:63
TRACK 07 AUDIO
TITLE "Skynyrd Fantasy"
PERFORMER "Rambler"
INDEX 01 25:15:30
TRACK 08 AUDIO
TITLE "Liqour in the Front , Poker in the Rear"
PERFORMER "Rambler"
INDEX 01 29:25:11
TRACK 09 AUDIO
TITLE "Missin You"
PERFORMER "Rambler"
INDEX 01 33:49:55
TRACK 10 AUDIO
TITLE "Blame It All on Me"
PERFORMER "Rambler"
INDEX 01 37:30:45
-----------------------

DON'T MODIFY THIS FILE

-----------------------

PERFORMER: auCDtect Task Manager, ver. 1.5.1RC6 build 1.5.1.7
Copyright (c) 2008-2010 y-soft. All rights reserved
http://y-soft.org

ANALYZER: auCDtect: CD records authenticity detector, version 0.8.2
Copyright (c) 2004 Oleg Berngardt. All rights reserved.
Copyright (c) 2004 Alexander Djourik. All rights reserved.

FILE: Rambler - First Things First.ape
Size: 292558080 Hash: A3EBBC28C31586896B6212C06A7DA3F1 Accuracy: -m0
Conclusion: CDDA 100%
Signature: 4A22819E4BEE5F503900A407A10235DBEC2FDF36


Трекер:  [ 23-Дек-2012 11:54 ]

  

Скачать .torrent

Размер .torrent файла 12 KB


Размер: 281 MB
Хэш (hash) релиза: 148600022c69530379d14de86b6a72a7b8d9a0f0

Еще никто не оставлял запись к записи скачать торрент Rambler - First Things First - 2004, APE . Будь первым!

!Обратная связь