Скачать через торрент музыку Three Dog Night - Cyan & Hard labour - 19731974 бесплатно без регистрации torrent

Если у вас наблюдаются проблемы со скриншотами, переходом по ссылками, скачиванием торрентов - проблемы в блокировщике рекламы AdBlock. #хорошегоДня!


Статистика раздачи
Размер:  444 MB   |    Зарегистрирован:  4 года 9 месяцев   |    .torrent скачан:  13 раз   |   
Раздают:  1  
   
Загрузка...
 
Автор Сообщение

Galfimbul

avatar Galfimbul


Three Dog Night / Cyan & Hard labour

Жанр: Classic Rock & Hard Rock
Страна-производитель диска: U.K
Год издания: 1973/1974 (2006)
Издатель (лейбл): Demon Music Group Ltd.
Номер по каталогу: Edsel Records DIAB 8079
Аудиокодек: FLAC (*.flac)
Тип рипа: image+.cue
Битрейт аудио: lossless
Продолжительность: 1:11:27.20 h:m:s.f
Источник (релизер): pazanenok
Наличие сканов в содержимом раздачи: нет
Треклист:
Happy song
Play children play
Storybook feeling
Eidin' thumb
Shambala
Singer man
Let me serenade you
Lay me down easy
Into my life
Prelude - Entry of the gladiators
Sure as I'm sittin here
Anytime babe
Put out the light
Sitting in limbo
I'd be so happy
Play something sweet (Brickyard blues)
On the way back home
The show must go on
Exact Audio Copy V0.99 prebeta 5 from 4. May 2009

Отчёт EAC об извлечении, выполненном 19. декабря 2012, 12:27

Three Dog Night / Cyan & Hard labour

Дисковод: HL-DT-STDVDRAM GH22NS50 Adapter: 2 ID: 1

Режим чтения : ДостоверностьИспользование точного потока : ДаОтключение кэша аудио : ДаИспользование указателей C2 : Нет

Коррекция смещения при чтении : 667Способность читать области Lead-in и Lead-out : НетЗаполнение пропущенных сэмплов тишиной : ДаУдаление блоков с тишиной в начале и конце : НетПри вычислениях CRC использовались нулевые сэмплы : ДаИнтерфейс : Встроенный Win32-интерфейс для Win NT/2000

Выходной формат : Пользовательский кодировщикВыбранный битрейт : 768 kBit/sКачество : ВысокийДобавление ID3-тэга : НетУтилита сжатия : C:\Program Files\Exact Audio Copy\FLAC\FLAC.EXEДополнительные параметры : -6 -V -T "ARTIST=%a" -T "TITLE=%t" -T "ALBUM=%g" -T "DATE=%y" -T "TRACKNUMBER=%n" -T "GENRE=%m" -T "COMMENT=%e" %s -o %d

TOC извлечённого CD

Трек | Старт | Длительность | Начальный сектор | Конечный сектор --------------------------------------------------------------------- 1 | 0:00.00 | 3:41.27 | 0 | 16601 2 | 3:41.27 | 4:13.07 | 16602 | 35583 3 | 7:54.34 | 4:23.34 | 35584 | 55342 4 | 12:17.68 | 4:12.64 | 55343 | 74306 5 | 16:30.57 | 3:26.49 | 74307 | 89805 6 | 19:57.31 | 3:31.07 | 89806 | 105637 7 | 23:28.38 | 3:18.47 | 105638 | 120534 8 | 26:47.10 | 3:57.44 | 120535 | 138353 9 | 30:44.54 | 4:37.67 | 138354 | 159195 10 | 35:22.46 | 1:01.02 | 159196 | 163772 11 | 36:23.48 | 4:49.02 | 163773 | 185449 12 | 41:12.50 | 3:23.03 | 185450 | 200677 13 | 44:35.53 | 3:09.09 | 200678 | 214861 14 | 47:44.62 | 4:59.14 | 214862 | 237300 15 | 52:44.01 | 5:07.00 | 237301 | 260325 16 | 57:51.01 | 4:51.50 | 260326 | 282200 17 | 62:42.51 | 4:17.26 | 282201 | 301501 18 | 67:00.02 | 4:27.18 | 301502 | 321544

Характеристики диапазона извлечения и сообщения об ошибках

Выбранный диапазон

Имя файла E:\РАЗДАЧИ\Three dog night - Cyan + Hard labor - 1973,74\Three Dog Night - Cyan & Hard labour.wav

Пиковый уровень 96.4 % Качество диапазона 100.0 % CRC копии 936503AA Копирование... OK

Ошибок не произошло

AccurateRip: сводка

Трек 1 нет в базе данныхТрек 2 нет в базе данныхТрек 3 нет в базе данныхТрек 4 нет в базе данныхТрек 5 нет в базе данныхТрек 6 нет в базе данныхТрек 7 нет в базе данныхТрек 8 нет в базе данныхТрек 9 нет в базе данныхТрек 10 нет в базе данныхТрек 11 нет в базе данныхТрек 12 нет в базе данныхТрек 13 нет в базе данныхТрек 14 нет в базе данныхТрек 15 нет в базе данныхТрек 16 нет в базе данныхТрек 17 нет в базе данныхТрек 18 нет в базе данных

Ни одного трека нет в базе AccurateRip

Конец отчёта
Доп. информация: Сканера нет.
Диск из личной коллекции.

Трекер:  [ 23-Дек-2012 11:54 ]

  

Скачать .torrent

Размер .torrent файла 18 KB


Размер: 444 MB
Хэш (hash) релиза: adae86c92844dc9e87182d469bc8b660923f5c8e

Еще никто не оставлял запись к записи скачать торрент Three Dog Night - Cyan & Hard labour - 19731974 . Будь первым!

!Обратная связь