Скачать через торрент музыку Band Marino - The Sea & The Beast - 2006, APE бесплатно без регистрации torrent

Если у вас наблюдаются проблемы со скриншотами, переходом по ссылками, скачиванием торрентов - проблемы в блокировщике рекламы AdBlock. #хорошегоДня!


Статистика раздачи
Размер:  223 MB   |    Зарегистрирован:  4 года 10 месяцев   |    .torrent скачан:  17 раз   |   
Раздают:  1  
   
Загрузка...
 
Автор Сообщение

Galfimbul

avatar Galfimbul


Band Marino / The Sea & The Beast

Жанр: Folk Rock, Indie
Страна-производитель диска: US
Год издания: 2006
Издатель (лейбл): Street Parade Records
Номер по каталогу: n/a
Страна: US
Аудиокодек: APE (*.ape)
Тип рипа: image+.cue
Битрейт аудио: lossless
Продолжительность: 00:38:32
Источник (релизер): avax
Наличие сканов в содержимом раздачи: нет
Треклист:
01 American Patriot 3:37
02 I Have A Dream 2:51
03 Chasing Rainbows 3:59
04 Elephants Are Grey (Elephants Are Blue) 0:53
05 Every Time I Make A Girl Cry I Know I've Done My Job 3:19
06 Feel It In The Air 4:46
07 Arlee Hayes 3:45
08 Someday We All Must Die 2:37
09 Como Se Dice Señorita Act1: The Layman's Lament 4:17
10 Song For A Melody 5:15
11 Dear Balladeer 3:11
Artwork By – Anna Melcon
Banjo, Keyboards, Mandolin, Backing Vocals, Whistle, Jew's Harp – Jonathan Nee
Bass, Backing Vocals – Abe Couch
Cello – Chris Moore (14) (tracks: 1, 6, 8)
Drums, Percussion – Dylon York
Engineer – Jared Wynne, Matt Malpass, Robert Wawoe
Guitar, Mandolin, Harmonica, Backing Vocals, Jew's Harp – Jesse Adams
Mastered By – Emily Lazar, Sarah Register
Mixed By – Robert Wawoe
Producer – Band Marino, Dave Pierce (3), Travis Adams
Recorded By – Dan Pierce, Travis Adams
Violin – Sean Moore (2) (tracks: 1, 2, 3, 8, 9)
Vocals – Jake Fentress (tracks: 11)
Vocals, Guitar – Nathan Bond (2)
Exact Audio Copy V1.0 beta 3 from 29. August 2011

EAC extraction logfile from 24. August 2012, 13:23

Band Marino / The Sea & The Beast

Used drive : PIONEER BD-RW BDR-206 Adapter: 2 ID: 3

Read mode : SecureUtilize accurate stream : YesDefeat audio cache : YesMake use of C2 pointers : No

Read offset correction : 667Overread into Lead-In and Lead-Out : NoFill up missing offset samples with silence : YesDelete leading and trailing silent blocks : NoNull samples used in CRC calculations : YesUsed interface : Native Win32 interface for Win NT & 2000

Used output format : User Defined EncoderSelected bitrate : 896 kBit/sQuality : HighAdd ID3 tag : NoCommand line compressor : C:\Program Files\FLAC\flac.exeAdditional command line options : -5 -T "Artist=%artist%" -T "Title=%title%" -T "Album=%albumtitle%" -T "Date=%year%" -T "Tracknumber=%tracknr%" -T "Genre=%genre%" %source% -o %dest%

TOC of the extracted CD

Track | Start | Length | Start sector | End sector --------------------------------------------------------- 1 | 0:00.00 | 3:37.35 | 0 | 16309 2 | 3:37.35 | 2:51.02 | 16310 | 29136 3 | 6:28.37 | 3:58.43 | 29137 | 47029 4 | 10:27.05 | 0:52.47 | 47030 | 50976 5 | 11:19.52 | 3:18.70 | 50977 | 65896 6 | 14:38.47 | 4:46.35 | 65897 | 87381 7 | 19:25.07 | 3:45.28 | 87382 | 104284 8 | 23:10.35 | 2:37.10 | 104285 | 116069 9 | 25:47.45 | 4:17.30 | 116070 | 135374 10 | 30:05.00 | 5:15.32 | 135375 | 159031 11 | 35:20.32 | 3:11.23 | 159032 | 173379

Range status and errors

Selected range

Filename I:\=== VINYL RIPS ===\=== EAC===\X FRESH RIP\Band Marino - The Sea & The Beast.wav

Peak level 100.0 % Extraction speed 6.8 X Range quality 99.9 % Test CRC C07BF6E5 Copy CRC C07BF6E5 Copy OK

No errors occurred

AccurateRip summary

Track 1 cannot be verified as accurate (confidence 3) [14C4DBCE], AccurateRip returned [03BFD238] (AR v2)Track 2 cannot be verified as accurate (confidence 3) [9934C94F], AccurateRip returned [E75753D1] (AR v2)Track 3 cannot be verified as accurate (confidence 3) [A20BB582], AccurateRip returned [A4727E5E] (AR v2)Track 4 cannot be verified as accurate (confidence 3) [870500B5], AccurateRip returned [A5152A5A] (AR v2)Track 5 cannot be verified as accurate (confidence 3) [313F7643], AccurateRip returned [5F22BAB3] (AR v2)Track 6 cannot be verified as accurate (confidence 3) [A89306C2], AccurateRip returned [E772B946] (AR v2)Track 7 cannot be verified as accurate (confidence 3) [84D2B101], AccurateRip returned [E506535D] (AR v2)Track 8 cannot be verified as accurate (confidence 3) [EF498B5F], AccurateRip returned [E97B79FE] (AR v2)Track 9 cannot be verified as accurate (confidence 3) [269CC853], AccurateRip returned [1D82CA40] (AR v2)Track 10 cannot be verified as accurate (confidence 3) [20AA1450], AccurateRip returned [7D13CD6E] (AR v2)Track 11 cannot be verified as accurate (confidence 3) [F79F156B], AccurateRip returned [A27C0EBE] (AR v2)

No tracks could be verified as accurateYou may have a different pressing from the one(s) in the database

End of status report

---- CUETools DB Plugin V2.1.3

[CTDB TOCID: 7U4OUlEl6oZX.vi26LSqe56IWMI-] disk not present in database, Submit result: 7U4OUlEl6oZX.vi26LSqe56IWMI- has been uploaded

==== Log checksum A5E58F6E75713EA5568916AF184523CFD427851289EECA2697EC524AD79CD50F ====
AUDIOCHECKER v2.0 beta (build 457) - by Dester - <a href="mailto:opdester@freemail.hu" class="postLink">opdester@freemail.hu</a>~~~~~~~~~~~~~~~~~~~~~~~~~~~~~~~~~~-=== DO NOT EDIT THIS FILE! ===-

Path: ...\Band Marino - The Sea & The Beast {US 2006}

1 -=- Band Marino - The Sea & The Beast.wav -=- CDDA (99%)

19742692


Трекер:  [ 23-Дек-2012 11:54 ]

  

Скачать .torrent

Размер .torrent файла 18 KB


Размер: 223 MB
Хэш (hash) релиза: c088b9ac78aa6fc9619d1b3f89aff33b2b8cc74b

Еще никто не оставлял запись к записи скачать торрент Band Marino - The Sea & The Beast - 2006, APE . Будь первым!

!Обратная связь