Скачать через торрент музыку Levellers - Uncomplete Discography, incl. Expanded Re-Issues - 1990-2012, APE бесплатно без регистрации torrent

Если у вас наблюдаются проблемы со скриншотами, переходом по ссылками, скачиванием торрентов - проблемы в блокировщике рекламы AdBlock. #хорошегоДня!


Статистика раздачи
Размер:  3.8 GB   |    Зарегистрирован:  4 года 8 месяцев   |    .torrent скачан:  20 раз   |   
Раздают:  1  
   
Загрузка...
 
Автор Сообщение

Galfimbul

avatar Galfimbul


Levellers - дискография, включающая расширенные переиздания (1990-2012)

Жанр: Folk-rock / Alternative Rock
Страна-производитель диска: England
Год издания диска: 1990 - 2012
Страна: England
Аудио кодек: APE (*.ape)
Тип рипа: image+.cue
Битрейт аудио: lossless
Источник (релизер): Собственная коллекция
Наличие сканов в содержимом раздачи: нет

Добавлен альбом 'Static on the Airwaves' (2012)!
1. World Freak Show (3:29)
2. Carry Me (4:56)
3. Outside/Inside (2:57)
4. Together All The Way (4:15)
5. Barrel Of The Gun (2:49)
6. Three Friends (4:19)
7. I Have No Answers (4:10)
8. No Change (3:24)
9. Blindfaith (3:49)
10. The Ballad Of Robbie Jones (2:40)
11. England My Home (3:38)
12. What You Know (4:03)
Extra Tracks:
13. Social Insecurity (2:46)
14. Cardboard Box City (4:05)
15. Three Friends (Remix) (5:33)
Exact Audio Copy V0.99 prebeta 4 from 23. January 2008

EAC extraction logfile from 17. September 2010, 0:58

Levellers / A Weapon Called The Word

Used drive : PIONEER DVD-RW DVR-116D Adapter: 0 ID: 0

Read mode : Secure
Utilize accurate stream : Yes
Defeat audio cache : Yes
Make use of C2 pointers : No

Read offset correction : 96
Overread into Lead-In and Lead-Out : No
Fill up missing offset samples with silence : Yes
Delete leading and trailing silent blocks : No
Null samples used in CRC calculations : Yes
Used interface : Native Win32 interface for Win NT & 2000

Used output format : Internal WAV Routines
Sample format : 44.100 Hz; 16 Bit; Stereo

TOC of the extracted CD

Track | Start | Length | Start sector | End sector
---------------------------------------------------------
1 | 0:00.00 | 3:29.52 | 0 | 15726
2 | 3:29.52 | 4:56.45 | 15727 | 37971
3 | 8:26.22 | 2:57.35 | 37972 | 51281
4 | 11:23.57 | 4:15.40 | 51282 | 70446
5 | 15:39.22 | 2:49.13 | 70447 | 83134
6 | 18:28.35 | 4:19.55 | 83135 | 102614
7 | 22:48.15 | 4:10.40 | 102615 | 121404
8 | 26:58.55 | 3:24.00 | 121405 | 136704
9 | 30:22.55 | 3:49.30 | 136705 | 153909
10 | 34:12.10 | 2:40.07 | 153910 | 165916
11 | 36:52.17 | 3:38.13 | 165917 | 182279
12 | 40:30.30 | 4:03.15 | 182280 | 200519
13 | 44:33.45 | 2:46.05 | 200520 | 212974
14 | 47:19.50 | 4:05.07 | 212975 | 231356
15 | 51:24.57 | 5:33.65 | 231357 | 256396

Range status and errors

Selected range

Filename F:\Outbound\Levellers - Albums\Levellers - A Weapon Called The Word [1996]\Levellers - A Weapon Called The Word.wav

Peak level 100.0 %
Range quality 100.0 %
Copy CRC 957696BD
Copy OK

No errors occurred

AccurateRip summary

Track 1 accurately ripped (confidence 4) [EBF610A0]
Track 2 accurately ripped (confidence 4) [26A9B88E]
Track 3 accurately ripped (confidence 4) [59474288]
Track 4 accurately ripped (confidence 4) [918903AF]
Track 5 accurately ripped (confidence 4) [192F34EA]
Track 6 accurately ripped (confidence 4) [021D65E4]
Track 7 accurately ripped (confidence 4) [048E7FC3]
Track 8 accurately ripped (confidence 4) [918DC1DA]
Track 9 accurately ripped (confidence 4) [9CC7E5E3]
Track 10 accurately ripped (confidence 4) [8FD97B98]
Track 11 accurately ripped (confidence 4) [9429159D]
Track 12 accurately ripped (confidence 4) [23A80654]
Track 13 accurately ripped (confidence 4) [89188312]
Track 14 accurately ripped (confidence 4) [77DF1B9C]
Track 15 accurately ripped (confidence 4) [AD2148D5]

All tracks accurately ripped

End of status report
1. One Way (4:08)
2. The Game (3:26)
3. 15 Years (3:10)
4. The Boatman (5:56)
5. Liberty Song (4:28)
6. Far From Home (3:46)
7. Sell Out (4:16)
8. Another Man's Cause (4:34)
9. The Road (3:59)
10. The Riverflow (3:02)
11. Battle Of The Beanfield (3:42)
12. Last Days Of Winter (2:25)
Extra Tracks:
13. Dance Before The Storm (4:02)
14. Hard Fight (4:27)
15. The Devil Went Down To Georgia (3:48)
16. Plastic Jeezus (2:04)
Exact Audio Copy V0.99 prebeta 4 from 23. January 2008

EAC extraction logfile from 16. September 2010, 23:58

Levellers / Levelling the Land [R1]

Used drive : PIONEER DVD-RW DVR-116D Adapter: 0 ID: 0

Read mode : Secure
Utilize accurate stream : Yes
Defeat audio cache : Yes
Make use of C2 pointers : No

Read offset correction : 96
Overread into Lead-In and Lead-Out : No
Fill up missing offset samples with silence : Yes
Delete leading and trailing silent blocks : No
Null samples used in CRC calculations : Yes
Used interface : Native Win32 interface for Win NT & 2000

Used output format : Internal WAV Routines
Sample format : 44.100 Hz; 16 Bit; Stereo

TOC of the extracted CD

Track | Start | Length | Start sector | End sector
---------------------------------------------------------
1 | 0:00.00 | 4:08.49 | 0 | 18648
2 | 4:08.49 | 3:26.14 | 18649 | 34112
3 | 7:34.63 | 3:10.23 | 34113 | 48385
4 | 10:45.11 | 5:56.15 | 48386 | 75100
5 | 16:41.26 | 4:28.33 | 75101 | 95233
6 | 21:09.59 | 3:46.29 | 95234 | 112212
7 | 24:56.13 | 4:16.62 | 112213 | 131474
8 | 29:13.00 | 4:34.25 | 131475 | 152049
9 | 33:47.25 | 3:59.63 | 152050 | 170037
10 | 37:47.13 | 3:02.26 | 170038 | 183713
11 | 40:49.39 | 3:42.48 | 183714 | 200411
12 | 44:32.12 | 2:25.30 | 200412 | 211316
13 | 46:57.42 | 4:02.67 | 211317 | 229533
14 | 51:00.34 | 4:27.26 | 229534 | 249584
15 | 55:27.60 | 3:48.46 | 249585 | 266730
16 | 59:16.31 | 2:04.55 | 266731 | 276085

Range status and errors

Selected range

Filename F:\Outbound\Levellers - Albums\Levellers - 2CD - Levelling the Land [1992, 2007]\CD1 - Levelling the Land\Levellers - Levelling the Land.wav

Peak level 99.4 %
Range quality 100.0 %
Copy CRC FF2ADB2E
Copy OK

No errors occurred

AccurateRip summary

Track 1 accurately ripped (confidence 12) [52121627]
Track 2 accurately ripped (confidence 12) [3655DAB6]
Track 3 accurately ripped (confidence 12) [77D3D475]
Track 4 accurately ripped (confidence 12) [D46F6A45]
Track 5 accurately ripped (confidence 12) [3C358756]
Track 6 accurately ripped (confidence 12) [2BC801F1]
Track 7 accurately ripped (confidence 12) [5040053E]
Track 8 accurately ripped (confidence 12) [8129CAFE]
Track 9 accurately ripped (confidence 12) [D1441343]
Track 10 accurately ripped (confidence 12) [0B2CA4A2]
Track 11 accurately ripped (confidence 12) [3578107C]
Track 12 accurately ripped (confidence 12) [A282742B]
Track 13 accurately ripped (confidence 12) [458B1F5B]
Track 14 accurately ripped (confidence 12) [454FF0AF]
Track 15 accurately ripped (confidence 12) [ACA52F22]
Track 16 accurately ripped (confidence 11) [0DC8072B]

All tracks accurately ripped

End of status report
1. The Game (4:02)
2. World Freak Show (3:29)
3. Dance Before The Storm (4:28)
4. The Boatman (4:15)
5. Far from Home (4:18)
6. Sell Out (4:48)
7. The Riverflow (3:12)
8. Battle of the Beanfield (3:22)
9. Jig / Three Friends (8:36)
10. Liberty Song (4:47)
11. One Way (5:35)
12. The Devil Went Down to Georgia (5:45)
Exact Audio Copy V0.99 prebeta 4 from 23. January 2008

EAC extraction logfile from 16. September 2010, 23:41

Levellers / Levelling the Land [2R Glastonbury '92]

Used drive : PIONEER DVD-RW DVR-116D Adapter: 0 ID: 0

Read mode : Secure
Utilize accurate stream : Yes
Defeat audio cache : Yes
Make use of C2 pointers : No

Read offset correction : 96
Overread into Lead-In and Lead-Out : No
Fill up missing offset samples with silence : Yes
Delete leading and trailing silent blocks : No
Null samples used in CRC calculations : Yes
Used interface : Native Win32 interface for Win NT & 2000

Used output format : Internal WAV Routines
Sample format : 44.100 Hz; 16 Bit; Stereo

TOC of the extracted CD

Track | Start | Length | Start sector | End sector
---------------------------------------------------------
1 | 0:00.00 | 4:02.73 | 0 | 18222
2 | 4:02.73 | 3:29.54 | 18223 | 33951
3 | 7:32.52 | 4:28.04 | 33952 | 54055
4 | 12:00.56 | 4:15.26 | 54056 | 73206
5 | 16:16.07 | 4:18.00 | 73207 | 92556
6 | 20:34.07 | 4:48.40 | 92557 | 114196
7 | 25:22.47 | 3:12.00 | 114197 | 128596
8 | 28:34.47 | 3:22.68 | 128597 | 143814
9 | 31:57.40 | 8:36.31 | 143815 | 182545
10 | 40:33.71 | 4:47.43 | 182546 | 204113
11 | 45:21.39 | 5:35.63 | 204114 | 229301
12 | 50:57.27 | 5:45.03 | 229302 | 255179

Range status and errors

Selected range

Filename F:\Outbound\Levellers - Albums\Levellers - 2CD - Levelling the Land [1992, 2007]\CD1 - Levelling the Land\Levellers - Levelling the Land [2R Glastonbury '92].wav

Peak level 99.7 %
Range quality 100.0 %
Copy CRC 68840325
Copy OK

No errors occurred

AccurateRip summary

Track 1 accurately ripped (confidence 12) [CCA3EE71]
Track 2 accurately ripped (confidence 12) [9403FB9E]
Track 3 accurately ripped (confidence 12) [286CDEED]
Track 4 accurately ripped (confidence 12) [EA353663]
Track 5 accurately ripped (confidence 12) [3BBB570D]
Track 6 accurately ripped (confidence 12) [E88676B3]
Track 7 accurately ripped (confidence 12) [AB3383B3]
Track 8 accurately ripped (confidence 12) [D12AA129]
Track 9 accurately ripped (confidence 12) [791D06A6]
Track 10 accurately ripped (confidence 12) [470CFADA]
Track 11 accurately ripped (confidence 12) [474A8449]
Track 12 accurately ripped (confidence 11) [52D73FBE]

All tracks accurately ripped

End of status report
1. Warning (5:01)
2. 100 Years Of Solitude (3:59)
3. The Likes Of You & I (4:49)
4. Is This Art? (3:13)
5. Dirty Davey (3:43)
6. This Garden (5:30)
7. Broken Circles (3:16)
8. Julie (6:12)
9. The Player (3:15)
10. Belaruse (3:05)
Extra Tracks:
11. The Lowlands Of Holland (5:03)
12. English Civil War (2:58)
13. Subvert (3:29)
14. Belaruse Return (3:17)
Exact Audio Copy V0.99 prebeta 4 from 23. January 2008

EAC extraction logfile from 17. September 2010, 0:14

Levellers / Levellers [R]

Used drive : PIONEER DVD-RW DVR-116D Adapter: 0 ID: 0

Read mode : Secure
Utilize accurate stream : Yes
Defeat audio cache : Yes
Make use of C2 pointers : No

Read offset correction : 96
Overread into Lead-In and Lead-Out : No
Fill up missing offset samples with silence : Yes
Delete leading and trailing silent blocks : No
Null samples used in CRC calculations : Yes
Used interface : Native Win32 interface for Win NT & 2000

Used output format : Internal WAV Routines
Sample format : 44.100 Hz; 16 Bit; Stereo

TOC of the extracted CD

Track | Start | Length | Start sector | End sector
---------------------------------------------------------
1 | 0:00.00 | 5:01.55 | 0 | 22629
2 | 5:01.55 | 3:59.24 | 22630 | 40578
3 | 9:01.04 | 4:49.27 | 40579 | 62280
4 | 13:50.31 | 3:13.22 | 62281 | 76777
5 | 17:03.53 | 3:43.36 | 76778 | 93538
6 | 20:47.14 | 5:30.22 | 93539 | 118310
7 | 26:17.36 | 3:16.19 | 118311 | 133029
8 | 29:33.55 | 6:12.55 | 133030 | 160984
9 | 35:46.35 | 3:15.28 | 160985 | 175637
10 | 39:01.63 | 3:05.15 | 175638 | 189527
11 | 42:07.03 | 5:03.22 | 189528 | 212274
12 | 47:10.25 | 2:58.04 | 212275 | 225628
13 | 50:08.29 | 3:29.05 | 225629 | 241308
14 | 53:37.34 | 3:17.47 | 241309 | 256130

Range status and errors

Selected range

Filename F:\Outbound\Levellers - Albums\Levellers - Levellers [1994, 2007]\Levellers - Levellers.wav

Peak level 99.7 %
Range quality 100.0 %
Copy CRC BC46974D
Copy OK

No errors occurred

AccurateRip summary

Track 1 accurately ripped (confidence 6) [B398E110]
Track 2 accurately ripped (confidence 6) [3C903D9B]
Track 3 accurately ripped (confidence 6) [CB920EE1]
Track 4 accurately ripped (confidence 6) [7F242604]
Track 5 accurately ripped (confidence 6) [B8520638]
Track 6 accurately ripped (confidence 6) [18D4A048]
Track 7 accurately ripped (confidence 6) [6633905A]
Track 8 accurately ripped (confidence 6) [5EED2836]
Track 9 accurately ripped (confidence 6) [4A1C2D06]
Track 10 accurately ripped (confidence 6) [2B8E5E00]
Track 11 accurately ripped (confidence 6) [ABFA4C62]
Track 12 accurately ripped (confidence 6) [30192E91]
Track 13 accurately ripped (confidence 6) [2020BFE5]
Track 14 accurately ripped (confidence 5) [0A5E8B65]

All tracks accurately ripped

End of status report
1. Levellers - Hope St. (4:14)
2. Levellers - The Fear (3:21)
3. Levellers - Exodus (4:20)
4. Levellers - Maid Of The River (3:49)
5. Levellers - Saturday To Sunday (3:14)
6. Levellers - 4 A.M. (3:44)
7. Levellers - Forgotten Ground (4:21)
8. Levellers - Fantasy (3:18)
9. Levellers - P.C. Keen (3:53)
10. Levellers - Just The One (1:42)
11. Levellers - Haven't Made It (2:59)
12. Levellers - Leave This Town (3:08)
13. Levellers - Men-An-Tol (4:34)
Extra Tracks:
14. Levellers - Miles Away (2:32)
15. Levellers - Your 'Ouse (4:26)
16. Levellers - Drinking For England (3:44)
17. Levellers - Searchlights (4:41)
Exact Audio Copy V1.0 beta 2 from 29. April 2011

EAC extraction logfile from 10. July 2011, 0:26

Levellers / Zeitgeist [R]

Used drive : PIONEER BD-RW BDR-206D Adapter: 2 ID: 1

Read mode : Secure
Utilize accurate stream : Yes
Defeat audio cache : Yes
Make use of C2 pointers : No

Read offset correction : 667
Overread into Lead-In and Lead-Out : No
Fill up missing offset samples with silence : Yes
Delete leading and trailing silent blocks : No
Null samples used in CRC calculations : Yes
Used interface : Native Win32 interface for Win NT & 2000

Used output format : Internal WAV Routines
Sample format : 44.100 Hz; 16 Bit; Stereo

TOC of the extracted CD

Track | Start | Length | Start sector | End sector
---------------------------------------------------------
1 | 0:00.00 | 4:14.55 | 0 | 19104
2 | 4:14.55 | 3:21.56 | 19105 | 34235
3 | 7:36.36 | 4:20.69 | 34236 | 53804
4 | 11:57.30 | 3:49.64 | 53805 | 71043
5 | 15:47.19 | 3:14.04 | 71044 | 85597
6 | 19:01.23 | 3:44.03 | 85598 | 102400
7 | 22:45.26 | 4:21.43 | 102401 | 122018
8 | 27:06.69 | 3:18.40 | 122019 | 136908
9 | 30:25.34 | 3:53.35 | 136909 | 154418
10 | 34:18.69 | 1:42.14 | 154419 | 162082
11 | 36:01.08 | 2:59.50 | 162083 | 175557
12 | 39:00.58 | 3:08.25 | 175558 | 189682
13 | 42:09.08 | 4:34.57 | 189683 | 210289
14 | 46:43.65 | 2:32.25 | 210290 | 221714
15 | 49:16.15 | 4:26.31 | 221715 | 241695
16 | 53:42.46 | 3:44.54 | 241696 | 258549
17 | 57:27.25 | 4:41.22 | 258550 | 279646

Range status and errors

Selected range

Filename F:\Outbound\Levellers - Uncomplete Discography\Levellers - Zeitgeist [1995, 2007]\Levellers - Zeitgeist.wav

Peak level 99.5 %
Extraction speed 7.8 X
Range quality 100.0 %
Copy CRC 6BE415C0
Copy OK

No errors occurred

AccurateRip summary

Track 1 accurately ripped (confidence 2) [E52058F8] (AR v2)
Track 2 accurately ripped (confidence 2) [4C2D9180] (AR v2)
Track 3 accurately ripped (confidence 2) [6AA7EBC2] (AR v2)
Track 4 accurately ripped (confidence 2) [19C66330] (AR v2)
Track 5 accurately ripped (confidence 2) [6C30FE15] (AR v2)
Track 6 accurately ripped (confidence 2) [8AA3816A] (AR v2)
Track 7 accurately ripped (confidence 2) [D7BE3376] (AR v2)
Track 8 accurately ripped (confidence 2) [A2F8BAF2] (AR v2)
Track 9 accurately ripped (confidence 2) [A9FF128F] (AR v2)
Track 10 accurately ripped (confidence 2) [58B932B2] (AR v2)
Track 11 accurately ripped (confidence 2) [E1A3DDEE] (AR v2)
Track 12 accurately ripped (confidence 2) [068C3F7A] (AR v2)
Track 13 accurately ripped (confidence 2) [8870C9CB] (AR v2)
Track 14 accurately ripped (confidence 2) [EC821DFA] (AR v2)
Track 15 accurately ripped (confidence 2) [23217E5B] (AR v2)
Track 16 accurately ripped (confidence 2) [243D3B92] (AR v2)
Track 17 accurately ripped (confidence 2) [9DE48B75] (AR v2)

All tracks accurately ripped

End of status report
1. Dog Train (4:30)
2. What A Beautiful Day (4:03)
3. Celebrate (4:03)
4. Rain And Snow (1:37)
5. Far Away (5:30)
6. CCTV (3:09)
7. Chemically Free (5:28)
8. Elation (5:47)
9. Captain's Courageous (3:15)
10. Survivors (4:25)
11. Sail Away (1:13)
12. Too Real (5:36)
Extra Tracks:
13. Bar Room Jury (3:45)
14. Angels (4:24)
15. All Your Dreams (5:44)
16. Windows (5:05)
Exact Audio Copy V0.99 prebeta 4 from 23. January 2008

EAC extraction logfile from 17. September 2010, 19:16

Levellers / Mouth To Mouth [R]

Used drive : PIONEER DVD-RW DVR-116D Adapter: 0 ID: 0

Read mode : Secure
Utilize accurate stream : Yes
Defeat audio cache : Yes
Make use of C2 pointers : No

Read offset correction : 96
Overread into Lead-In and Lead-Out : No
Fill up missing offset samples with silence : Yes
Delete leading and trailing silent blocks : No
Null samples used in CRC calculations : Yes
Used interface : Native Win32 interface for Win NT & 2000

Used output format : Internal WAV Routines
Sample format : 44.100 Hz; 16 Bit; Stereo

TOC of the extracted CD

Track | Start | Length | Start sector | End sector
---------------------------------------------------------
1 | 0:00.00 | 4:30.41 | 0 | 20290
2 | 4:30.41 | 4:03.02 | 20291 | 38517
3 | 8:33.43 | 4:03.06 | 38518 | 56748
4 | 12:36.49 | 1:37.38 | 56749 | 64061
5 | 14:14.12 | 5:30.25 | 64062 | 88836
6 | 19:44.37 | 3:09.54 | 88837 | 103065
7 | 22:54.16 | 5:28.72 | 103066 | 127737
8 | 28:23.13 | 5:47.51 | 127738 | 153813
9 | 34:10.64 | 3:15.40 | 153814 | 168478
10 | 37:26.29 | 4:25.28 | 168479 | 188381
11 | 41:51.57 | 1:13.62 | 188382 | 193918
12 | 43:05.44 | 5:36.12 | 193919 | 219130
13 | 48:41.56 | 3:45.70 | 219131 | 236075
14 | 52:27.51 | 4:24.01 | 236076 | 255876
15 | 56:51.52 | 5:44.52 | 255877 | 281728
16 | 62:36.29 | 5:05.58 | 281729 | 304661

Range status and errors

Selected range

Filename F:\Outbound\Levellers - Albums\Levellers - Mouth to Mouth [1997, 2007]\Levellers - Mouth To Mouth.wav

Peak level 99.4 %
Range quality 99.9 %
Copy CRC 557DB4C8
Copy OK

No errors occurred

AccurateRip summary

Track 1 accurately ripped (confidence 5) [6B9222AA]
Track 2 accurately ripped (confidence 5) [12F204AE]
Track 3 accurately ripped (confidence 5) [EAA35400]
Track 4 accurately ripped (confidence 5) [1A7AD35D]
Track 5 accurately ripped (confidence 5) [9333668B]
Track 6 accurately ripped (confidence 5) [C2FD84D0]
Track 7 accurately ripped (confidence 5) [DB89249F]
Track 8 accurately ripped (confidence 5) [976E0B0C]
Track 9 accurately ripped (confidence 5) [975FF54C]
Track 10 accurately ripped (confidence 5) [CE9C6D6C]
Track 11 accurately ripped (confidence 5) [E7347F76]
Track 12 accurately ripped (confidence 5) [DD017FA4]
Track 13 accurately ripped (confidence 5) [D1CB2DBD]
Track 14 accurately ripped (confidence 5) [47FC882F]
Track 15 accurately ripped (confidence 5) [07247CF1]
Track 16 accurately ripped (confidence 4) [EAC405AF]

All tracks accurately ripped

End of status report
1. Happy Birthday Revolution (3:30)
2. Invisible (3:40)
3. The Weed that Killed Elvis (3:24)
4. Edge of the World (3:53)
5. Do it Again Tomorrow (2:50)
6. Walk Lightly (3:34)
7. Voices on the Wind (4:01)
8. Sold England (3:56)
9. Modern Day Tragedy (5:40)
10. Dreams (2:45)
11. 61 Minutes of Pleading (4:04)
12. Red Sun Burns (2:36)
13. Gold and Silver (3:36)
Extra Tracks:
14. Michael's Bar (4:04)
15. Patches (3:33)
16. Good Old-Fashioned Hope (3:04)
Exact Audio Copy V0.99 prebeta 4 from 23. January 2008

EAC extraction logfile from 17. September 2010, 19:30

Levellers / Hello Pig [R]

Used drive : PIONEER DVD-RW DVR-116D Adapter: 0 ID: 0

Read mode : Secure
Utilize accurate stream : Yes
Defeat audio cache : Yes
Make use of C2 pointers : No

Read offset correction : 96
Overread into Lead-In and Lead-Out : No
Fill up missing offset samples with silence : Yes
Delete leading and trailing silent blocks : No
Null samples used in CRC calculations : Yes
Used interface : Native Win32 interface for Win NT & 2000

Used output format : Internal WAV Routines
Sample format : 44.100 Hz; 16 Bit; Stereo

TOC of the extracted CD

Track | Start | Length | Start sector | End sector
---------------------------------------------------------
1 | 0:00.00 | 3:30.05 | 0 | 15754
2 | 3:30.05 | 3:40.51 | 15755 | 32305
3 | 7:10.56 | 3:24.57 | 32306 | 47662
4 | 10:35.38 | 3:53.18 | 47663 | 65155
5 | 14:28.56 | 2:50.74 | 65156 | 77979
6 | 17:19.55 | 3:34.40 | 77980 | 94069
7 | 20:54.20 | 4:01.19 | 94070 | 112163
8 | 24:55.39 | 3:56.06 | 112164 | 129869
9 | 28:51.45 | 5:40.74 | 129870 | 155443
10 | 34:32.44 | 2:45.30 | 155444 | 167848
11 | 37:17.74 | 4:04.28 | 167849 | 186176
12 | 41:22.27 | 2:36.27 | 186177 | 197903
13 | 43:58.54 | 3:36.19 | 197904 | 214122
14 | 47:34.73 | 4:04.28 | 214123 | 232450
15 | 51:39.26 | 3:33.66 | 232451 | 248491
16 | 55:13.17 | 3:04.33 | 248492 | 262324

Range status and errors

Selected range

Filename F:\Outbound\Levellers - Albums\Levellers - Hello Pig [2000, 2007]\Levellers - Hello Pig.wav

Peak level 99.4 %
Range quality 100.0 %
Copy CRC F4042B10
Copy OK

No errors occurred

AccurateRip summary

Track 1 accurately ripped (confidence 7) [770AD720]
Track 2 accurately ripped (confidence 7) [26A0BBBF]
Track 3 accurately ripped (confidence 7) [395C1275]
Track 4 accurately ripped (confidence 7) [704D8033]
Track 5 accurately ripped (confidence 7) [E935AD72]
Track 6 accurately ripped (confidence 7) [FCC5AE32]
Track 7 accurately ripped (confidence 7) [F853A7E3]
Track 8 accurately ripped (confidence 7) [5B80DD10]
Track 9 accurately ripped (confidence 7) [D97A3534]
Track 10 accurately ripped (confidence 7) [FBDB9333]
Track 11 accurately ripped (confidence 7) [E1E82AA7]
Track 12 accurately ripped (confidence 7) [FAC63072]
Track 13 accurately ripped (confidence 7) [2E7F6E8B]
Track 14 accurately ripped (confidence 7) [61107F9C]
Track 15 accurately ripped (confidence 7) [288BDD41]
Track 16 accurately ripped (confidence 6) [34CF508A]

All tracks accurately ripped

End of status report
1. Four Winds (3:23)
2. Falling From The Tree (4:07)
3. Pretty Target (3:40)
4. Come On (2:25)
5. Pour (4:16)
6. Aspects Of Spirit (3:46)
7. Wild As Angels (2:57)
8. Believers (3:04)
9. A Chorus Line (2:48)
10. Not What We Wanted (3:20)
11. Wake The World (3:29)
Exact Audio Copy V0.99 prebeta 4 from 23. January 2008

EAC extraction logfile from 17. September 2010, 18:53

Levellers / Green Blade Rising

Used drive : PIONEER DVD-RW DVR-116D Adapter: 0 ID: 0

Read mode : Secure
Utilize accurate stream : Yes
Defeat audio cache : Yes
Make use of C2 pointers : No

Read offset correction : 96
Overread into Lead-In and Lead-Out : No
Fill up missing offset samples with silence : Yes
Delete leading and trailing silent blocks : No
Null samples used in CRC calculations : Yes
Used interface : Native Win32 interface for Win NT & 2000

Used output format : Internal WAV Routines
Sample format : 44.100 Hz; 16 Bit; Stereo

TOC of the extracted CD

Track | Start | Length | Start sector | End sector
---------------------------------------------------------
1 | 0:00.00 | 3:22.48 | 0 | 15197
2 | 3:22.48 | 4:07.26 | 15198 | 33748
3 | 7:29.74 | 3:40.25 | 33749 | 50273
4 | 11:10.24 | 2:25.37 | 50274 | 61185
5 | 13:35.61 | 4:16.28 | 61186 | 80413
6 | 17:52.14 | 3:45.51 | 80414 | 97339
7 | 21:37.65 | 2:56.61 | 97340 | 110600
8 | 24:34.51 | 3:04.16 | 110601 | 124416
9 | 27:38.67 | 2:48.09 | 124417 | 137025
10 | 30:27.01 | 3:20.18 | 137026 | 152043
11 | 33:47.19 | 3:29.35 | 152044 | 167753
12 | 39:48.54 | 10:36.73 | 179154 | 226926

Range status and errors

Selected range

Filename F:\Outbound\Levellers - Albums\Levellers - Green Blade Rising [2002]\Levellers - Green Blade Rising.wav

Peak level 100.0 %
Range quality 100.0 %
Copy CRC 21F31578
Copy OK

No errors occurred

AccurateRip summary

Track 1 accurately ripped (confidence 10) [D1A1E3A5]
Track 2 accurately ripped (confidence 10) [4C030D8D]
Track 3 accurately ripped (confidence 10) [BBA1B18F]
Track 4 accurately ripped (confidence 10) [05E49203]
Track 5 accurately ripped (confidence 10) [A27A395F]
Track 6 accurately ripped (confidence 10) [4FF02A4C]
Track 7 accurately ripped (confidence 10) [844C1666]
Track 8 accurately ripped (confidence 10) [A27D2CCE]
Track 9 accurately ripped (confidence 10) [04CB5A10]
Track 10 accurately ripped (confidence 10) [CB5E86EF]
Track 11 accurately ripped (confidence 10) [9A8EF718]

All tracks accurately ripped

End of status report
1. Levellers - Last Man Alive (3:07)
2. Levellers - Make You Happy (3:45)
3. Levellers - Confess (4:49)
4. Levellers - For Us All (3:27)
5. Levellers - Knot Around The World (3:31)
6. Levellers - Steel Knife (4:21)
7. Levellers - Wheels (3:48)
8. Levellers - Said And Done (3:10)
9. Levellers - Who's The Daddy (3:51)
10. Levellers - The Damned (4:01)
11. Levellers - Sleeping (5:33)
Exact Audio Copy V1.0 beta 2 from 29. April 2011

EAC extraction logfile from 10. July 2011, 0:41

Levellers / Truth & Lies

Used drive : PIONEER BD-RW BDR-206D Adapter: 2 ID: 1

Read mode : Secure
Utilize accurate stream : Yes
Defeat audio cache : Yes
Make use of C2 pointers : No

Read offset correction : 667
Overread into Lead-In and Lead-Out : No
Fill up missing offset samples with silence : Yes
Delete leading and trailing silent blocks : No
Null samples used in CRC calculations : Yes
Used interface : Native Win32 interface for Win NT & 2000

Used output format : Internal WAV Routines
Sample format : 44.100 Hz; 16 Bit; Stereo

TOC of the extracted CD

Track | Start | Length | Start sector | End sector
---------------------------------------------------------
1 | 0:00.00 | 3:07.32 | 0 | 14056
2 | 3:07.32 | 3:45.58 | 14057 | 30989
3 | 6:53.15 | 4:49.13 | 30990 | 52677
4 | 11:42.28 | 3:27.74 | 52678 | 68276
5 | 15:10.27 | 3:31.61 | 68277 | 84162
6 | 18:42.13 | 4:21.62 | 84163 | 103799
7 | 23:04.00 | 3:48.49 | 103800 | 120948
8 | 26:52.49 | 3:10.73 | 120949 | 135271
9 | 30:03.47 | 3:51.36 | 135272 | 152632
10 | 33:55.08 | 4:01.62 | 152633 | 170769
11 | 37:56.70 | 5:33.44 | 170770 | 195788

Range status and errors

Selected range

Filename F:\Outbound\Levellers - Uncomplete Discography\Levellers - Truth & Lies [2005]\Levellers - Truth & Lies.wav

Peak level 100.0 %
Extraction speed 7.0 X
Range quality 99.9 %
Copy CRC 0BFFAC8B
Copy OK

No errors occurred

AccurateRip summary

Track 1 accurately ripped (confidence 14) [707F46BA] (AR v1)
Track 2 accurately ripped (confidence 14) [63F7C703] (AR v1)
Track 3 accurately ripped (confidence 14) [F91F6CBF] (AR v1)
Track 4 accurately ripped (confidence 14) [4EA4F816] (AR v1)
Track 5 accurately ripped (confidence 14) [43DB14F0] (AR v1)
Track 6 accurately ripped (confidence 14) [BE0F37A8] (AR v1)
Track 7 accurately ripped (confidence 14) [51FFD2A7] (AR v1)
Track 8 accurately ripped (confidence 15) [338D91A8] (AR v1)
Track 9 accurately ripped (confidence 14) [5D33B8E8] (AR v1)
Track 10 accurately ripped (confidence 14) [04DD4F91] (AR v1)
Track 11 accurately ripped (confidence 14) [34936187] (AR v1)

All tracks accurately ripped

End of status report
1. Levellers - The Cholera Well (2:30)
2. Levellers - Death Loves Youth (3:51)
3. Levellers - Eyes Wide (2:46)
4. Levellers - Before The End (3:40)
5. Levellers - Burn America Burn (2:51)
6. Levellers - Heart Of The Country (3:05)
7. Levellers - Behold A Pale Rider (4:50)
8. Levellers - A Life Less Ordinary (3:09)
9. Levellers - Accidental Anarchist (2:45)
10. Levellers - Duty (3:18)
11. Levellers - Fight Or Flight (3:09)
Exact Audio Copy V1.0 beta 2 from 29. April 2011

EAC extraction logfile from 10. July 2011, 0:04

Levellers / Letters from the Underground

Used drive : PIONEER BD-RW BDR-206D Adapter: 2 ID: 1

Read mode : Secure
Utilize accurate stream : Yes
Defeat audio cache : Yes
Make use of C2 pointers : No

Read offset correction : 667
Overread into Lead-In and Lead-Out : No
Fill up missing offset samples with silence : Yes
Delete leading and trailing silent blocks : No
Null samples used in CRC calculations : Yes
Used interface : Native Win32 interface for Win NT & 2000

Used output format : Internal WAV Routines
Sample format : 44.100 Hz; 16 Bit; Stereo

TOC of the extracted CD

Track | Start | Length | Start sector | End sector
---------------------------------------------------------
1 | 0:00.00 | 2:30.26 | 0 | 11275
2 | 2:30.26 | 3:51.48 | 11276 | 28648
3 | 6:21.74 | 2:46.65 | 28649 | 41163
4 | 9:08.64 | 3:40.58 | 41164 | 57721
5 | 12:49.47 | 2:51.04 | 57722 | 70550
6 | 15:40.51 | 3:05.21 | 70551 | 84446
7 | 18:45.72 | 4:50.25 | 84447 | 106221
8 | 23:36.22 | 3:09.31 | 106222 | 120427
9 | 26:45.53 | 2:45.16 | 120428 | 132818
10 | 29:30.69 | 3:18.41 | 132819 | 147709
11 | 32:49.35 | 3:09.14 | 147710 | 161898

Range status and errors

Selected range

Filename F:\Outbound\Levellers - Uncomplete Discography\Levellers - Letters from the Underground [2008]\Levellers - Letters from the Underground.wav

Peak level 100.0 %
Extraction speed 6.6 X
Range quality 99.9 %
Copy CRC 62CAA356
Copy OK

No errors occurred

AccurateRip summary

Track 1 accurately ripped (confidence 8) [6781A4A1] (AR v1)
Track 2 accurately ripped (confidence 8) [F7E0CC9B] (AR v1)
Track 3 accurately ripped (confidence 8) [AA5D2E28] (AR v1)
Track 4 accurately ripped (confidence 8) [5ED74043] (AR v1)
Track 5 accurately ripped (confidence 8) [AC35FA11] (AR v1)
Track 6 accurately ripped (confidence 8) [68B73B1D] (AR v1)
Track 7 accurately ripped (confidence 8) [2B34FBC1] (AR v1)
Track 8 accurately ripped (confidence 8) [23A69153] (AR v1)
Track 9 accurately ripped (confidence 8) [0789199F] (AR v1)
Track 10 accurately ripped (confidence 8) [FF17AE42] (AR v1)
Track 11 accurately ripped (confidence 7) [AC2DB073] (AR v1)

All tracks accurately ripped

End of status report
1. Levellers - Static On The Airwaves (0:49)
2. Levellers - We Are All Gunmen (4:39)
3. Levellers - Truth Is (3:16)
4. Levellers - After The Hurricane (4:13)
5. Levellers - Our Forgotten Towns (2:10)
6. Levellers - No Barriers (4:29)
7. Levellers - Alone In This Darkness (3:43)
8. Levellers - Raft Of The Medusa (3:50)
9. Levellers - Mutiny (3:30)
10. Levellers - Traveller (3:54)
11. Levellers - Second Life (3:49)
12. Levellers - The Recruiting Sergeant (3:54)
Exact Audio Copy V1.0 beta 3 from 29. August 2011

EAC extraction logfile from 18. December 2012, 21:47

Levellers / Static On The Airwaves

Used drive : PIONEER BD-RW BDR-206D Adapter: 2 ID: 0

Read mode : Secure
Utilize accurate stream : Yes
Defeat audio cache : Yes
Make use of C2 pointers : No

Read offset correction : 667
Overread into Lead-In and Lead-Out : No
Fill up missing offset samples with silence : Yes
Delete leading and trailing silent blocks : No
Null samples used in CRC calculations : Yes
Used interface : Native Win32 interface for Win NT & 2000

Used output format : Internal WAV Routines
Sample format : 44.100 Hz; 16 Bit; Stereo

TOC of the extracted CD

Track | Start | Length | Start sector | End sector
---------------------------------------------------------
1 | 0:00.00 | 0:49.15 | 0 | 3689
2 | 0:49.15 | 4:39.37 | 3690 | 24651
3 | 5:28.52 | 3:16.73 | 24652 | 39424
4 | 8:45.50 | 4:13.33 | 39425 | 58432
5 | 12:59.08 | 2:10.06 | 58433 | 68188
6 | 15:09.14 | 4:29.31 | 68189 | 88394
7 | 19:38.45 | 3:43.65 | 88395 | 105184
8 | 23:22.35 | 3:50.33 | 105185 | 122467
9 | 27:12.68 | 3:30.44 | 122468 | 138261
10 | 30:43.37 | 3:54.45 | 138262 | 155856
11 | 34:38.07 | 3:49.30 | 155857 | 173061
12 | 38:27.37 | 3:54.03 | 173062 | 190614

Range status and errors

Selected range

Filename F:\Outbound\Levellers - Uncomplete Discography\Levellers - Static on the Airwaves [2012]\Levellers - Static On The Airwaves.wav

Peak level 100.0 %
Extraction speed 1.7 X
Range quality 100.0 %
Copy CRC 82A564A2
Copy OK

No errors occurred

AccurateRip summary

Track 1 accurately ripped (confidence 4) [41D4E75F] (AR v1)
Track 2 accurately ripped (confidence 4) [155F25F6] (AR v1)
Track 3 accurately ripped (confidence 4) [D12551E1] (AR v1)
Track 4 accurately ripped (confidence 4) [0CFBC6D9] (AR v1)
Track 5 accurately ripped (confidence 4) [3FAC2A67] (AR v1)
Track 6 accurately ripped (confidence 4) [232F1D8A] (AR v1)
Track 7 accurately ripped (confidence 4) [A5D4DF4E] (AR v1)
Track 8 accurately ripped (confidence 4) [2B0AF312] (AR v1)
Track 9 accurately ripped (confidence 4) [4C621330] (AR v1)
Track 10 accurately ripped (confidence 4) [F6620B4A] (AR v1)
Track 11 accurately ripped (confidence 4) [C7439515] (AR v1)
Track 12 accurately ripped (confidence 4) [D5BAC778] (AR v1)

All tracks accurately ripped

End of status report


Трекер:  [ 23-Дек-2012 11:54 ]

  

Скачать .torrent

Размер .torrent файла 24 KB


Размер: 3.8 GB
Хэш (hash) релиза: 37c9284bc7a092f32fdd5df249a65aae480a245c

Еще никто не оставлял запись к записи скачать торрент Levellers - Uncomplete Discography, incl. Expanded Re-Issues - 1990-2012, APE . Будь первым!

!Обратная связь