Скачать через торрент музыку Quaterna Réquiem бесплатно без регистрации torrent

Если у вас наблюдаются проблемы со скриншотами, переходом по ссылками, скачиванием торрентов - проблемы в блокировщике рекламы AdBlock. #хорошегоДня!


Статистика раздачи
Размер:  542 MB   |    Зарегистрирован:  4 года 7 месяцев   |    .torrent скачан:  28 раз   |   
Раздают:  1  
   
Загрузка...
 
Автор Сообщение

Galfimbul

avatar Galfimbul


Quaterna Réquiem / O Arquiteto
Жанр: Symphonic Prog
Год издания: 2012
Издатель (лейбл): Quaterna Records
Номер по каталогу: QR04
Страна: Brazil
Аудиокодек: FLAC (*.flac)
Тип рипа: image+.cue
Битрейт аудио: lossless
Продолжительность: 1:17:49
Источник (релизер): CD (мой рип)
Наличие сканов в содержимом раздачи: да (300dpi, png)

Треклист:
1. Preludium - 11:05
2. Mosaicos - 4:31
3. Fantasia Urbana - 11:51
Suite "O Arquiteto"
4. I. Bramante - 4:49
5. Interludio Pedra - 2:21
6. II. Mansart - 3:31
7. Interludio Vidro - 1:40
8. III. Frank Lloyd - 7:34
9. Interludio Madeira - 2:42
10. IV. Gaudi - 13:25
11. Interludio Concreto - 0:42
12. V. Niemeyer - 5:35
13. VI. Desconstruçao - 3:12
14. VII. Postludium - 4:35
|| quaternarequiem.net || progarchives.com || progressiverockbr.com || rateyourmusic.com ||
Exact Audio Copy V1.0 beta 3 from 29. August 2011

EAC extraction logfile from 18. December 2012, 9:04

Quaterna Requiem / O ARQUITETO

Used drive : ASUS DRW-1608P3S Adapter: 1 ID: 1

Read mode : SecureUtilize accurate stream : YesDefeat audio cache : YesMake use of C2 pointers : No

Read offset correction : 48Overread into Lead-In and Lead-Out : YesFill up missing offset samples with silence : YesDelete leading and trailing silent blocks : NoNull samples used in CRC calculations : YesUsed interface : Installed external ASPI interface

Used output format : Internal WAV RoutinesSample format : 44.100 Hz; 16 Bit; Stereo

TOC of the extracted CD

Track | Start | Length | Start sector | End sector --------------------------------------------------------- 1 | 0:00.00 | 11:07.64 | 0 | 50088 2 | 11:07.64 | 4:33.31 | 50089 | 70594 3 | 15:41.20 | 11:54.18 | 70595 | 124162 4 | 27:35.38 | 4:49.63 | 124163 | 145900 5 | 32:25.26 | 2:21.72 | 145901 | 156547 6 | 34:47.23 | 3:31.55 | 156548 | 172427 7 | 38:19.03 | 1:40.42 | 172428 | 179969 8 | 39:59.45 | 7:34.43 | 179970 | 214062 9 | 47:34.13 | 2:42.17 | 214063 | 226229 10 | 50:16.30 | 13:25.30 | 226230 | 286634 11 | 63:41.60 | 0:42.68 | 286635 | 289852 12 | 64:24.53 | 5:35.72 | 289853 | 315049 13 | 70:00.50 | 3:12.31 | 315050 | 329480 14 | 73:13.06 | 4:36.14 | 329481 | 350194

Range status and errors

Selected range

Filename E:\bzp01\Quaterna Requiem - O Arquiteto\Quaterna Requiem - O ARQUITETO.wav

Peak level 100.0 % Extraction speed 8.1 X Range quality 100.0 % Test CRC F4CE1DEC Copy CRC F4CE1DEC Copy OK

No errors occurred

AccurateRip summary

Track 1 accurately ripped (confidence 1) [C8E6CA34] (AR v2)Track 2 accurately ripped (confidence 1) [23C3777D] (AR v2)Track 3 accurately ripped (confidence 1) [98582259] (AR v2)Track 4 accurately ripped (confidence 1) [189696A5] (AR v2)Track 5 accurately ripped (confidence 1) [4F06BFB8] (AR v2)Track 6 accurately ripped (confidence 1) [139910C9] (AR v2)Track 7 accurately ripped (confidence 1) [BC0A754B] (AR v2)Track 8 accurately ripped (confidence 1) [E11DBFC9] (AR v2)Track 9 accurately ripped (confidence 1) [0837E50A] (AR v2)Track 10 accurately ripped (confidence 1) [65A2EB32] (AR v2)Track 11 accurately ripped (confidence 1) [915374C0] (AR v2)Track 12 accurately ripped (confidence 1) [61F9A36B] (AR v2)Track 13 accurately ripped (confidence 1) [C74E38E4] (AR v2)Track 14 accurately ripped (confidence 1) [B1761735] (AR v2)

All tracks accurately ripped

End of status report

==== Log checksum 57020CEBD1056386A907D5CB16B65984AD1A6EB458F6715C4E45AEC711370010 ====
REM GENRE "Progressive Rock"REM DATE 2012REM DISCID D4123D0EREM COMMENT "ExactAudioCopy v1.0b3"PERFORMER "Quaterna Requiem"TITLE "O ARQUITETO"FILE "Quaterna Requiem - O ARQUITETO.flac" WAVE TRACK 01 AUDIO TITLE "Preludium" PERFORMER "Quaterna Requiem" ISRC BRELW1200001 INDEX 01 00:00:00 TRACK 02 AUDIO TITLE "Mosaicos" PERFORMER "Quaterna Requiem" ISRC BRELW1200003 INDEX 00 11:05:16 INDEX 01 11:07:64 TRACK 03 AUDIO TITLE "Fantasia Urbana" PERFORMER "Quaterna Requiem" ISRC BRELW1200002 INDEX 00 15:38:69 INDEX 01 15:41:20 TRACK 04 AUDIO TITLE "Bramante" PERFORMER "Quaterna Requiem" ISRC BRELW1200004 INDEX 00 27:32:47 INDEX 01 27:35:38 TRACK 05 AUDIO TITLE "Pedra" PERFORMER "Quaterna Requiem" ISRC BRELW1200005 INDEX 00 32:25:20 INDEX 01 32:25:26 TRACK 06 AUDIO TITLE "Mansart" PERFORMER "Quaterna Requiem" ISRC BRELW1200006 INDEX 00 34:47:09 INDEX 01 34:47:23 TRACK 07 AUDIO TITLE "Vidro" PERFORMER "Quaterna Requiem" ISRC BRELW1200007 INDEX 00 38:18:26 INDEX 01 38:19:03 TRACK 08 AUDIO TITLE "Frank Lloyd" PERFORMER "Quaterna Requiem" ISRC BRELW1200008 INDEX 01 39:59:45 TRACK 09 AUDIO TITLE "Madeira" PERFORMER "Quaterna Requiem" ISRC BRELW1200009 INDEX 01 47:34:13 TRACK 10 AUDIO TITLE "Gaudi" PERFORMER "Quaterna Requiem" ISRC BRELW1200010 INDEX 01 50:16:30 TRACK 11 AUDIO TITLE "Concreto" PERFORMER "Quaterna Requiem" ISRC BRELW1200011 INDEX 01 63:41:60 TRACK 12 AUDIO TITLE "Niemeyer" PERFORMER "Quaterna Requiem" ISRC BRELW1200012 INDEX 01 64:24:53 TRACK 13 AUDIO TITLE "Desconstrucao" PERFORMER "Quaterna Requiem" ISRC BRELW1200013 INDEX 01 70:00:50 TRACK 14 AUDIO TITLE "Postludium" PERFORMER "Quaterna Requiem" ISRC BRELW1200014 INDEX 01 73:13:06
[CUETools log; Date: 18.12.2012 11:23:11; Version: 2.1.2a][CTDB TOCID: FhvIutrJn0d.e0alOVyy49X3gxk-] disk not present in database.[AccurateRip ID: 002c6be1-01c8529a-d4123d0e] found.Track [ CRC ] Status 01 [5a58fd2b] (0/1) No match but offset 02 [a92958e4] (0/1) No match but offset 03 [2b72be2c] (0/1) No match but offset 04 [7b7dfe4b] (0/1) No match but offset 05 [530ebeab] (0/1) No match but offset 06 [6d38df47] (0/1) No match but offset 07 [3e950fda] (0/1) No match but offset 08 [7bc89f10] (0/1) No match but offset 09 [5b90f8f6] (0/1) No match but offset 10 [3220cf60] (0/1) No match but offset 11 [9956d7ca] (0/1) No match but offset 12 [e3b1a831] (0/1) No match but offset 13 [34bf2177] (0/1) No match but offset 14 [4f264e75] (0/1) No match but offsetAccurateRip v2: 01 [c8e6ca34] (1/1) Accurately ripped 02 [23c3777d] (1/1) Accurately ripped 03 [98582259] (1/1) Accurately ripped 04 [189696a5] (1/1) Accurately ripped 05 [4f06bfb8] (1/1) Accurately ripped 06 [139910c9] (1/1) Accurately ripped 07 [bc0a754b] (1/1) Accurately ripped 08 [e11dbfc9] (1/1) Accurately ripped 09 [0837e50a] (1/1) Accurately ripped 10 [65a2eb32] (1/1) Accurately ripped 11 [915374c0] (1/1) Accurately ripped 12 [61f9a36b] (1/1) Accurately ripped 13 [c74e38e4] (1/1) Accurately ripped 14 [b1761735] (1/1) Accurately ripped

Track Peak [ CRC32 ] [W/O NULL] [ LOG ] -- 100,0 [F4CE1DEC] [09C859F7] CRC32 01 99,7 [FC14BDC7] [2D2F1BBB] 02 84,0 [BDB66688] [D460B782] 03 99,7 [810E7D2E] [5D040348] 04 99,7 [E98322BA] [9F4B24EA] 05 99,6 [5CAF2674] [930F3411] 06 92,7 [66D8EDD7] [88D85CAD] 07 89,8 [D8E3A115] [3B1F3924] 08 99,7 [5351FEF4] [CA13841C] 09 99,7 [EA9A6A4D] [AAB64423] 10 99,7 [2EB7D144] [85F49FF2] 11 99,7 [2AE8D9E3] [9CCD0065] 12 99,7 [5A2CCD14] [FACFA912] 13 100,0 [B5672461] [7F178AA4] 14 99,7 [11370C12] [A64BB7BB]

-----------------------

DON'T MODIFY THIS FILE

-----------------------

PERFORMER: auCDtect Task Manager, ver. 1.5.1RC6 build 1.5.1.7Copyright (c) 2008-2010 y-soft. All rights reservedhttp://y-soft.org

ANALYZER: auCDtect: CD records authenticity detector, version 0.8.2Copyright (c) 2004 Oleg Berngardt. All rights reserved.Copyright (c) 2004 Alexander Djourik. All rights reserved.

FILE: Quaterna Requiem - O ARQUITETO.flac Size: 498756389 Hash: 2228AB08E41F0C78F67228EF547E4028 Accuracy: -m0 Conclusion: CDDA 99% Signature: 695B6CF4BA25881BC0D7B28821906F9FD1DE0411
Quaterna Requiem (Wiermann & Vogel) biography

A symphonic progressive band out of Brazil. The group plays piano, synthesizer for lyrical developments, violin, classical guitar & viola, bass & drums. Additional musicians add oboe, flute. The music is symphonic prog centered around Elisa Wiermann on keyboards and Claudio Dantas on drums. Highly recommended to fans of the Italian classical prog style.

Some of the music is similiar to Hungarian band SOLARIS where the flute is added. Those who like the Hungarian band "AFTER CRYING" might well be interested in this release as it is quite classical at times. A splendid music, as good as SAGRADO or EZRA WINSTON. "Velha Gravura" is the #1 Brazilian prog masterpiece.

http://www.progarchives.com/artist.asp?id=294
Quaterna Réquiem - O Arquiteto
3.96 | 51 ratings | 2 reviews | 42% 5 stars - progarchives.com

After 18 years waiting for a Studio album (as told by the band itself, Wiermann & Vogel is not so much a Quaterna Requiem album) it was a pleasant surprise to notice that "O Arquiteto" has seen the light of day. It was an old project and some people can see that a few tracks were part of their DVD from 2004, including "Frank LLoyd", that seems to be a version of "Casa de Cascata". I am normally very critic about brazilian prog bands whose quantity is more noteworthy than the quality. But there are 2 bands that are really irreproachable. Bacamarte and Quaterna Requiem are the best bands ever to appear in brazilian prog rock and are in no way behind the best bands of the world. This new release shows they have lost nothing of their old shape. After I bought the CD I listened to it 4 times in a row and I still was not tired of it. There are 4 songs, but the 4th is a long suite that is in fact a reunion of songs very different among themselves mostly named after famous architects separated by small interludes whose names are materials of construction (Stone, Glass, Wood and Concrete). The album in a general way sounds pretty much like "Velha Gravura" and "Quasimodo". As its predecessors the album is very symphonic oriented, dominated by the keyboardist Elisa Wierman, who composed all the songs, with the nice violin of Kleber Vogel embelishing the music at every step (unlike Quasimodo, recorded while Vogel was pursuing his own project, Kaizen). We can see however a stylistic change in songs like Gaudi and Niemeyer, that are maybe of more recent composition, that are somewhat less melodic and rhytmically more complex. Congratulations to Quaterna Requiem for another great work. For the sake of quality prog rock I hope I have not heard the last of them.

http://www.progarchives.com/Review.asp?id=817344
- Claudio Dantas / drums
- Elisa Wiermann / keyboards
- Kleber Vogel / violin
- Roberto Crivano / guitars
- Jorge Matias / bass



Трекер:  [ 23-Дек-2012 11:54 ]

  

Скачать .torrent

Размер .torrent файла 11 KB


Размер: 542 MB
Хэш (hash) релиза: 6bee9e549484b3f325d9610d08207178b7b40d1c

Торренты, похожие на Quaterna Réquiem скачать торрент

Форум Название Автор Размер S L Добавлен
Зарубежный Rock ·· (Symphonic Prog) Quaterna Réquiem (Quaterna Requiem) / Wiermann & Vogel - Дискография (5 альбомов) - 1990-2012, MP3, 320 kbps Galfimbul 861171421821 MB 0 0 1352119920

15:52

5-Ноя-12

Еще никто не оставлял запись к записи скачать торрент Quaterna Réquiem . Будь первым!

!Обратная связь