Скачать через торрент музыку Standarte - st бесплатно без регистрации torrent

Если у вас наблюдаются проблемы со скриншотами, переходом по ссылками, скачиванием торрентов - проблемы в блокировщике рекламы AdBlock. #хорошегоДня!


Статистика раздачи
Размер:  327 MB   |    Зарегистрирован:  4 года 7 месяцев   |    .torrent скачан:  12 раз   |   
Раздают:  1  
   
Загрузка...
 
Автор Сообщение

Galfimbul

avatar Galfimbul


Standarte - s/t

Жанр: Heavy Prog
Год выпуска диска: 1995
Страна: Italy
Label: Black Widow Records
Catalog Nr.: BWRCD 007-2
Аудио кодек: FLAC
Тип рипа: image+.cue (test&copy)
Битрейт аудио: lossless
Продолжительность: 46:58
Источник: рип от Maik

Трэклист:

1. Dream Love Sequence Nr. 9 (7:53)
- In The Arms Of Fear
- Winter Is Cold
- Mind In Doors
2. One Strange December Evening (4:55)
- Spider Baby
- Sinaesthesia
3. As I Wandered (3:24)
- Black River Of Sorrow
4. Tolerance Town (3:40)
- Badazz Shuffle
5. Beat Pimp Muzak (5:07)
- Scumtown
6. A War Was Declared (7:22)
- Charge Of The Life Brigade
- Peace In The Garden
7. In My Time Of Dying (6:33)
- Wasn't Life Fantastic?
8. Traumland (5:20)
9. I Want You (2:39)

Total Time: 46:58
- Daniele Caputo / drums, vocal
- Michele Profeti / organ, Mellotron
- Stefano Gabbani / bass
Об альбоме: Дебютный альбом известного итальянского проекта. Рип сделан ув.Maik и раздаётся (as is) с любезного разрешения автора.
Как уже удалось проверить, правильный рип этого альбома пока не содержится в базе данных Acccurate rip.
Exact Audio Copy V1.0 beta 2 from 29. April 2011

EAC extraction logfile from 27. May 2011, 12:17

Standarte / Standarte

Used drive : HL-DT-STDVD-ROM GDR8164B Adapter: 2 ID: 1

Read mode : Secure
Utilize accurate stream : Yes
Defeat audio cache : Yes
Make use of C2 pointers : No

Read offset correction : 102
Overread into Lead-In and Lead-Out : No
Fill up missing offset samples with silence : Yes
Delete leading and trailing silent blocks : No
Null samples used in CRC calculations : Yes
Used interface : Native Win32 interface for Win NT & 2000

Used output format : User Defined Encoder
Selected bitrate : 1024 kBit/s
Quality : High
Add ID3 tag : No
Command line compressor : C:\Programs\EAC\Exact Audio Copy\FLAC\FLAC.EXE
Additional command line options : -8 -V -T "ARTIST=%artist%" -T "TITLE=%title%" -T "ALBUM=%albumtitle%" -T "DATE=%year%" -T "TRACKNUMBER=%tracknr%" -T "GENRE=%genre%" -T "COMMENT= EAC FLAC -8%comment%" %hascover%--picture="%coverfile%"%hascover% %source% -o

TOC of the extracted CD

Track | Start | Length | Start sector | End sector
---------------------------------------------------------
1 | 0:00.32 | 7:53.60 | 32 | 35566
2 | 7:54.17 | 4:55.13 | 35567 | 57704
3 | 12:49.30 | 3:24.17 | 57705 | 73021
4 | 16:13.47 | 3:40.68 | 73022 | 89589
5 | 19:54.40 | 5:07.35 | 89590 | 112649
6 | 25:02.00 | 7:22.05 | 112650 | 145804
7 | 32:24.05 | 6:34.67 | 145805 | 175421
8 | 38:58.72 | 5:20.10 | 175422 | 199431
9 | 44:19.07 | 2:39.25 | 199432 | 211381

Range status and errors

Selected range

Filename C:\EAC\0Flac\Standarte - Standarte.wav

Peak level 95.6 %
Extraction speed 2.1 X
Range quality 100.0 %
Test CRC D33B244F
Copy CRC D33B244F
Copy OK

No errors occurred

AccurateRip summary

Track 1 cannot be verified as accurate (confidence 1) [CEADB3D5], AccurateRip returned [FFB5953E] (AR v2)
Track 2 cannot be verified as accurate (confidence 1) [94F359FF], AccurateRip returned [D7EDB55B] (AR v2)
Track 3 cannot be verified as accurate (confidence 1) [94494FF4], AccurateRip returned [9B590431] (AR v2)
Track 4 cannot be verified as accurate (confidence 1) [90FAE233], AccurateRip returned [65CA8AE3] (AR v2)
Track 5 cannot be verified as accurate (confidence 1) [6AD25B37], AccurateRip returned [F1E4EC46] (AR v2)
Track 6 cannot be verified as accurate (confidence 1) [2D3C437E], AccurateRip returned [8FCAE5EA] (AR v2)
Track 7 cannot be verified as accurate (confidence 1) [E80D5882], AccurateRip returned [34F416CC] (AR v2)
Track 8 cannot be verified as accurate (confidence 1) [801FC174], AccurateRip returned [65E5BBE2] (AR v2)
Track 9 cannot be verified as accurate (confidence 1) [ADEFBAF3], AccurateRip returned [F4771FB6] (AR v2)

No tracks could be verified as accurate
You may have a different pressing from the one(s) in the database

End of status report
[CUETools log; Date: 17.12.2012 23:59:04; Version: 2.1.4]
Pregap length 00:00:32.
[CTDB TOCID: vl15S2S9eaLowkiEJMAU0j9ZgeI-] disk not present in database.
[AccurateRip ID: 0010cb3f-0079f66a-7e0b0209] found.
Track [ CRC | V2 ] Status
01 [c815a052|ceadb3d5] (0+0/0) No match
02 [69bf1e0f|94f359ff] (0+0/0) No match
03 [eb3be782|94494ff4] (0+0/0) No match
04 [dee8da4b|90fae233] (0+0/0) No match
05 [74c02ee2|6ad25b37] (0+0/0) No match
06 [0c2b8b19|2d3c437e] (0+0/0) No match
07 [3e2704b8|e80d5882] (0+0/0) No match
08 [0dbe4d36|801fc174] (0+0/0) No match
09 [cdbbfe12|adefbaf3] (0+0/0) No match

Track Peak [ CRC32 ] [W/O NULL] [ LOG ]
-- 95,6 [D33B244F] [B9B6BADE] CRC32
01 95,6 [54178E4B] [47AB4FC6]
02 95,6 [DF705667] [A6DA934E]
03 95,6 [93626F47] [9BE0196C]
04 95,6 [4AC9212C] [0CE1895A]
05 95,6 [8AF5BEB4] [B5CD2960]
06 95,2 [2E05A817] [800C21E0]
07 95,6 [009E2DE1] [19B1435F]
08 95,6 [0E426D33] [867EB2B4]
09 95,6 [E43D7FFC] [37296A52]


Трекер:  [ 23-Дек-2012 11:53 ]

  

Скачать .torrent

Размер .torrent файла 13 KB


Размер: 327 MB
Хэш (hash) релиза: 06a2ff6d781693d499a2e2df5bfc267bbd7174c8

Еще никто не оставлял запись к записи скачать торрент Standarte - st . Будь первым!

!Обратная связь