Скачать через торрент музыку It Bites - Calling All The Heroes-The Best Of It Bites - 1995, FLAC бесплатно без регистрации torrent

Если у вас наблюдаются проблемы со скриншотами, переходом по ссылками, скачиванием торрентов - проблемы в блокировщике рекламы AdBlock. #хорошегоДня!


Статистика раздачи
Размер:  427 MB   |    Зарегистрирован:  4 года 10 месяцев   |    .torrent скачан:  9 раз   |   
Раздают:  1  
   
Загрузка...
 
Автор Сообщение

Galfimbul

avatar Galfimbul


It Bites - Calling All The Heroes-The Best Of

Жанр: Progressive/Pop Rock
Страна-производитель диска: EU
Год издания: 1995
Издатель (лейбл): Virgin Recors
Аудиокодек: FLAC (*.flac)
Тип рипа: image+.cue
Битрейт аудио: lossless
Продолжительность: 1:01:37
Источник (релизер): Собственный фирменный CD
Наличие сканов в содержимом раздачи: да
Треклист:
01. Still To Young To Remember [0:03:58.77]
02. Calling All The Heroes [0:04:03.86]
03. Strange But True [0:04:06.40]
04. All In Red [0:03:32.66]
05. Kiss Like Judas [0:04:08.82]
06. Murder Of The Planet Earth [0:03:47.37]
07. Midnight [0:04:03.20]
08. Sister Sarah [0:04:17.46]
09. The Old Man And The Angel [0:03:46.73]
10. Underneath Your Pillow [0:04:25.00]
11. Screaming On The Beaches [0:03:46.40]
12. Whole New World [0:03:55.60]
13. Yellow Christian [0:06:30.93]
14. You'll Never Go To Heaven (Live Version) [0:07:13.86]
Exact Audio Copy V1.0 beta 3 from 29. August 2011

EAC extraction logfile from 18. December 2012, 19:50

It Bites / Calling All The Heroes-The Best Of It Bites

Used drive : PIONEER DVD-RW DVR-212 Adapter: 2 ID: 0

Read mode : SecureUtilize accurate stream : YesDefeat audio cache : YesMake use of C2 pointers : No

Read offset correction : 48Overread into Lead-In and Lead-Out : NoFill up missing offset samples with silence : YesDelete leading and trailing silent blocks : NoNull samples used in CRC calculations : YesUsed interface : Native Win32 interface for Win NT & 2000

Used output format : User Defined EncoderSelected bitrate : 896 kBit/sQuality : HighAdd ID3 tag : YesCommand line compressor : C:\Program Files\FLAC\flac.exeAdditional command line options : -V -8 -T "Date=%year%" -T "Genre=%genre%" %source%

TOC of the extracted CD

Track | Start | Length | Start sector | End sector --------------------------------------------------------- 1 | 0:00.32 | 3:58.58 | 32 | 17939 2 | 3:59.15 | 4:03.65 | 17940 | 36229 3 | 8:03.05 | 4:06.30 | 36230 | 54709 4 | 12:09.35 | 3:32.50 | 54710 | 70659 5 | 15:42.10 | 4:08.62 | 70660 | 89321 6 | 19:50.72 | 3:47.28 | 89322 | 106374 7 | 23:38.25 | 4:03.15 | 106375 | 124614 8 | 27:41.40 | 4:17.35 | 124615 | 143924 9 | 31:59.00 | 3:46.55 | 143925 | 160929 10 | 35:45.55 | 4:25.00 | 160930 | 180804 11 | 40:10.55 | 3:46.30 | 180805 | 197784 12 | 43:57.10 | 3:55.45 | 197785 | 215454 13 | 47:52.55 | 6:30.70 | 215455 | 244774 14 | 54:23.50 | 7:13.65 | 244775 | 277314

Range status and errors

Selected range

Filename E:\Import CD\It Bites - Calling All The Heroes-The Best Of It Bites.wav

Peak level 100.0 % Extraction speed 7.8 X Range quality 100.0 % Test CRC CCC9540A Copy CRC CCC9540A Copy OK

No errors occurred

AccurateRip summary

Track 1 cannot be verified as accurate (confidence 6) [C15032DB], AccurateRip returned [79995D41] (AR v2)Track 2 cannot be verified as accurate (confidence 6) [22FD5B97], AccurateRip returned [ADE3FC63] (AR v2)Track 3 cannot be verified as accurate (confidence 6) [46AD90E4], AccurateRip returned [563E75CB] (AR v2)Track 4 cannot be verified as accurate (confidence 6) [ACFB73B4], AccurateRip returned [7D8E7382] (AR v2)Track 5 cannot be verified as accurate (confidence 6) [06EE59D4], AccurateRip returned [E84897CD] (AR v2)Track 6 cannot be verified as accurate (confidence 6) [842C1400], AccurateRip returned [2569BFDE] (AR v2)Track 7 cannot be verified as accurate (confidence 6) [3C244EB9], AccurateRip returned [98A4DA51] (AR v2)Track 8 cannot be verified as accurate (confidence 6) [2DE8E345], AccurateRip returned [D4D4700A] (AR v2)Track 9 cannot be verified as accurate (confidence 6) [5F8286E2], AccurateRip returned [5C2FBB4F] (AR v2)Track 10 cannot be verified as accurate (confidence 6) [0926B7F4], AccurateRip returned [7B7B40D1] (AR v2)Track 11 cannot be verified as accurate (confidence 6) [7F4B636C], AccurateRip returned [182B8A84] (AR v2)Track 12 cannot be verified as accurate (confidence 6) [0D6376CE], AccurateRip returned [EBB5FF12] (AR v2)Track 13 cannot be verified as accurate (confidence 6) [7E545260], AccurateRip returned [9BAD4B61] (AR v2)Track 14 cannot be verified as accurate (confidence 6) [DDAE018C], AccurateRip returned [C4C554C1] (AR v2)

No tracks could be verified as accurateYou may have a different pressing from the one(s) in the database

End of status report

==== Log checksum 29B3EEFDA09234668641E122A22228E72694D62D7678729E7FF9452E0FAE6C77 ====


Трекер:  [ 23-Дек-2012 11:53 ]

  

Скачать .torrent

Размер .torrent файла 35 KB


Размер: 427 MB
Хэш (hash) релиза: 6ef3d49e861ab8d8f1c44e1f5011e336a95a5dbd

Еще никто не оставлял запись к записи скачать торрент It Bites - Calling All The Heroes-The Best Of It Bites - 1995, FLAC . Будь первым!

!Обратная связь