Скачать через торрент музыку The Stargazers - Rock That Boogie! - 1993, FLAC бесплатно без регистрации torrent

Если у вас наблюдаются проблемы со скриншотами, переходом по ссылками, скачиванием торрентов - проблемы в блокировщике рекламы AdBlock. #хорошегоДня!


Статистика раздачи
Размер:  322 MB   |    Зарегистрирован:  4 года 7 месяцев   |    .torrent скачан:  26 раз   |   
Раздают:  1  
   
Загрузка...
 
Автор Сообщение

Galfimbul

avatar Galfimbul


The Stargazers / Rock That Boogie!

Жанр: Rock'n'Roll
Страна-производитель диска: England
Год издания: 1993
Издатель (лейбл): Vinyl Japan Ltd.
Номер по каталогу: JRCD7
Страна: England
Аудиокодек: FLAC (*.flac)
Тип рипа: image+.cue
Битрейт аудио: lossless
Продолжительность: 43:07
Источник (релизер): AUDELAS KINGDOM
Наличие сканов в содержимом раздачи: да
01. Rock That Boogie
02. Big Bad Wolf
03. Hi Ho Silver
04. Teenage Party
05. Better Believe It
06. I Got A Baby
07. Move Over Baby
08. Caravan
09. La Rock 'n' Roll (Quelques Uns A La Lune)
10. Rockin' Rollin' Home
11. Tonight's The Night
12. A Little Jump, A Little Swing
13. Rock Lomond
14. Caldonia
15. Fat Man
16. The Gleam In Your Eyes
17. Time Goes By
18. Flying High
19. Swingin' Aye
20. Rebound
21. Bounce Me Brother
Exact Audio Copy V1.0 beta 2 from 29. April 2011

Отчёт EAC об извлечении, выполненном 17. декабря 2012, 20:10

The Stargazers / Rock That Boogie!

Дисковод: ATAPI iHAS124 B Adapter: 1 ID: 1

Режим чтения : ДостоверностьИспользование точного потока : ДаОтключение кэша аудио : ДаИспользование указателей C2 : Нет

Коррекция смещения при чтении : 6Способность читать области Lead-in и Lead-out : НетЗаполнение пропущенных сэмплов тишиной : ДаУдаление блоков с тишиной в начале и конце : НетПри вычислениях CRC использовались нулевые сэмплы : ДаИнтерфейс : Встроенный Win32-интерфейс для Win NT/2000

Выходной формат : Пользовательский кодировщикВыбранный битрейт : 1024 kBit/sКачество : ВысокийДобавление ID3-тега : НетУтилита сжатия : C:\Program Files\Exact Audio Copy\FLAC\FLAC.EXEДополнительные параметры : -6 -V -T "ARTIST=%artist%" -T "TITLE=%title%" -T "ALBUM=%albumtitle%" -T "DATE=%year%" -T "TRACKNUMBER=%tracknr%" -T "GENRE=%genre%" -T "COMMENT=%comment%" -T "BAND=%albuminterpret%" -T "COMPOSER=%composer%" %haslyrics%--tag-from-

TOC извлечённого CD

Трек | Старт | Длительность | Начальный сектор | Конечный сектор --------------------------------------------------------------------- 1 | 0:00.00 | 2:03.40 | 0 | 9264 2 | 2:03.40 | 2:04.20 | 9265 | 18584 3 | 4:07.60 | 2:22.72 | 18585 | 29306 4 | 6:30.57 | 2:24.38 | 29307 | 40144 5 | 8:55.20 | 2:18.60 | 40145 | 50554 6 | 11:14.05 | 2:13.47 | 50555 | 60576 7 | 13:27.52 | 2:34.40 | 60577 | 72166 8 | 16:02.17 | 2:11.20 | 72167 | 82011 9 | 18:13.37 | 2:52.48 | 82012 | 94959 10 | 21:06.10 | 2:35.35 | 94960 | 106619 11 | 23:41.45 | 2:21.37 | 106620 | 117231 12 | 26:03.07 | 2:05.15 | 117232 | 126621 13 | 28:08.22 | 2:53.33 | 126622 | 139629 14 | 31:01.55 | 2:14.52 | 139630 | 149731 15 | 33:16.32 | 2:34.55 | 149732 | 161336 16 | 35:51.12 | 3:06.10 | 161337 | 175296 17 | 38:57.22 | 2:18.08 | 175297 | 185654 18 | 41:15.30 | 2:44.17 | 185655 | 197971 19 | 43:59.47 | 2:43.10 | 197972 | 210206 20 | 46:42.57 | 3:19.55 | 210207 | 225186 21 | 50:02.37 | 2:38.03 | 225187 | 237039

Характеристики диапазона извлечения и сообщения об ошибках

Выбранный диапазон

Имя файла D:\Muzika\The Stargazers - Rock That Boogie! (1993)\The Stargazers - Rock That Boogie!.wav

Пиковый уровень 100.0 % Скорость извлечения 8.0 X Качество диапазона 100.0 % CRC теста 53B02E58 CRC копии 53B02E58 Копирование... OK

Ошибок не произошло

AccurateRip: сводка

Трек 1 отсутствует в базе данныхТрек 2 отсутствует в базе данныхТрек 3 отсутствует в базе данныхТрек 4 отсутствует в базе данныхТрек 5 отсутствует в базе данныхТрек 6 отсутствует в базе данныхТрек 7 отсутствует в базе данныхТрек 8 отсутствует в базе данныхТрек 9 отсутствует в базе данныхТрек 10 отсутствует в базе данныхТрек 11 отсутствует в базе данныхТрек 12 отсутствует в базе данныхТрек 13 отсутствует в базе данныхТрек 14 отсутствует в базе данныхТрек 15 отсутствует в базе данныхТрек 16 отсутствует в базе данныхТрек 17 отсутствует в базе данныхТрек 18 отсутствует в базе данныхТрек 19 отсутствует в базе данныхТрек 20 отсутствует в базе данныхТрек 21 отсутствует в базе данных

Ни одного трека нет в базе AccurateRip

Конец отчёта

==== Контрольная сумма отчёта BFB0B9D880D7611FBF17B1CF62A493A752F9EE128057F5A18C30467BF781A7CF ====


Трекер:  [ 23-Дек-2012 11:52 ]

  

Скачать .torrent

Размер .torrent файла 13 KB


Размер: 322 MB
Хэш (hash) релиза: 9e712b3f220f18ad2f44265783aee7ee261e6de2

Еще никто не оставлял запись к записи скачать торрент The Stargazers - Rock That Boogie! - 1993, FLAC . Будь первым!

!Обратная связь