Скачать через торрент музыку Goddo - Goddo - 1977, бесплатно без регистрации torrent

Если у вас наблюдаются проблемы со скриншотами, переходом по ссылками, скачиванием торрентов - проблемы в блокировщике рекламы AdBlock. #хорошегоДня!


Статистика раздачи
Размер:  248 MB   |    Зарегистрирован:  4 года 8 месяцев   |    .torrent скачан:  18 раз   |   
Раздают:  1  
   
Загрузка...
 
Автор Сообщение

Galfimbul

avatar Galfimbul


Goddo - Goddo - 1977

Жанр: hard rock
Страна-производитель диска: Canada
Год издания: 1977
Издатель (лейбл): Bullseye Records
Страна: Canada
Аудиокодек: FLAC (*.flac)
Тип рипа: image+.cue
Битрейт аудио: lossless
Продолжительность: 0:35:49
Источник (релизер): hanalex (blogspot.ru)
Наличие сканов в содержимом раздачи: да, но слабого качества
Треклист:
01. The Bus Driver Blues
02. Let It Slide http://www.youtube.com/watch?v=px_b8uhJGf0&feature=player_embedded
03. Drive Me Crazy
04. Twelve Days
05. Let That Lizard Loose
06. Under My Hat
07. I’m Losing You
08. Hard Years
Exact Audio Copy V1.0 beta 3 from 29. August 2011

EAC extraction logfile from 3. July 2012, 13:21

Goddo / Goddo

Used drive : PLDS DVD+-RW DH-16A6S Adapter: 0 ID: 1

Read mode : SecureUtilize accurate stream : YesDefeat audio cache : NoMake use of C2 pointers : No

Read offset correction : 6Overread into Lead-In and Lead-Out : NoFill up missing offset samples with silence : YesDelete leading and trailing silent blocks : NoNull samples used in CRC calculations : YesUsed interface : Native Win32 interface for Win NT & 2000

Used output format : User Defined EncoderSelected bitrate : 1024 kBit/sQuality : HighAdd ID3 tag : NoCommand line compressor : C:\Program Files\FLAC\flac.exeAdditional command line options : --best -T "ARTIST=%artist%" -T "TITLE=%title%" -T "ALBUM=%albumtitle%" -T "DATE=%year%" -T "TRACKNUMBER=%tracknr%" -T "GENRE=%genre%" %source%

TOC of the extracted CD

Track | Start | Length | Start sector | End sector --------------------------------------------------------- 1 | 0:00.00 | 4:34.27 | 0 | 20576 2 | 4:34.27 | 3:54.25 | 20577 | 38151 3 | 8:28.52 | 3:24.00 | 38152 | 53451 4 | 11:52.52 | 7:06.33 | 53452 | 85434 5 | 18:59.10 | 5:19.60 | 85435 | 109419 6 | 24:18.70 | 3:22.20 | 109420 | 124589 7 | 27:41.15 | 4:46.35 | 124590 | 146074 8 | 32:27.50 | 3:22.07 | 146075 | 161231

Range status and errors

Selected range

Filename C:\Documents and Settings\TURD\Desktop\New Folder (2)\Goddo - Goddo.wav

Peak level 93.3 % Extraction speed 8.6 X Range quality 100.0 % Copy CRC A375F736 Copy OK

No errors occurred

AccurateRip summary

Track 1 cannot be verified as accurate (confidence 1) [A84D27F2], AccurateRip returned [72AFBBD9] (AR v2)Track 2 cannot be verified as accurate (confidence 1) [3C786F3F], AccurateRip returned [42CCFB27] (AR v2)Track 3 cannot be verified as accurate (confidence 1) [FAC971DC], AccurateRip returned [AA51D167] (AR v2)Track 4 cannot be verified as accurate (confidence 1) [FA5CA3E3], AccurateRip returned [62D5C9CF] (AR v2)Track 5 cannot be verified as accurate (confidence 1) [F1D7CBCF], AccurateRip returned [C5256777] (AR v2)Track 6 cannot be verified as accurate (confidence 1) [696E2EE1], AccurateRip returned [14F41598] (AR v2)Track 7 cannot be verified as accurate (confidence 1) [20B8C911], AccurateRip returned [60A93D04] (AR v2)Track 8 cannot be verified as accurate (confidence 1) [59E7C81A], AccurateRip returned [1020747B] (AR v2)

No tracks could be verified as accurateYou may have a different pressing from the one(s) in the database

End of status report
REM GENRE Pop-RockREM DATE 1976REM DISCID 5C086508REM COMMENT "ExactAudioCopy v1.0b3"PERFORMER "Goddo"TITLE "Goddo"FILE "Goddo - Goddo.flac" WAVE TRACK 01 AUDIO TITLE "The Bus Driver Blues" PERFORMER "Goddo" INDEX 01 00:00:00 TRACK 02 AUDIO TITLE "Drive Me Crazy" PERFORMER "Goddo" INDEX 01 04:34:27 TRACK 03 AUDIO TITLE "Let That Lizard Loose" PERFORMER "Goddo" INDEX 01 08:28:52 TRACK 04 AUDIO TITLE "I'm Losing You" PERFORMER "Goddo" INDEX 01 11:52:52 TRACK 05 AUDIO TITLE "Let It Slide" PERFORMER "Goddo" INDEX 01 18:59:10 TRACK 06 AUDIO TITLE "Twelve Days" PERFORMER "Goddo" INDEX 01 24:18:70 TRACK 07 AUDIO TITLE "Under My Hat" PERFORMER "Goddo" INDEX 01 27:41:15 TRACK 08 AUDIO TITLE "Hard Years" PERFORMER "Goddo" INDEX 01 32:27:50
AUDIOCHECKER v2.0 beta (build 457) - by Dester - <a href="mailto:opdester@freemail.hu" class="postLink">opdester@freemail.hu</a>~~~~~~~~~~~~~~~~~~~~~~~~~~~~~~~~~~-=== DO NOT EDIT THIS FILE! ===-

Path: ...\Goddo - Goddo - 1977

1 -=- Goddo - Goddo.flac -=- CDDA (99%)

184530436
Доп. информация: Первый альбом великолепной канадской рок-группы. Конечно, слабее, допустим, чем An Act of Goddo - 1979. Но, всё равно, неплохой альбом. И ведь это - дебютный альбом.
http://en.wikipedia.org/wiki/Goddo
http://www.spirit-of-metal.com/groupe-groupe-Goddo-l-fr.html
http://www.canadianbands.com/Goddo_CDs.html
Like many debut albums, the self-titled opening salvo from Toronto hard rock trio Goddo is the band's least polished effort. Not that 1977's Goddo is inferior; it just doesn't offer the musical craftsmanship and sonic ingenuity of the band's later work. But what it lacks in presentation it makes up for in power, propulsion, and plenty of '70s hedonism and ego. Laying out the ground rules the band would follow for much of its career, Goddo delivers a hard-rocking set of smirking fantasies about sex, drugs, and rock 'n' roll. "Drive Me Crazy" and "Twelve Days" are choogling boogie-rock odes to foreplay and touring; "Let That Lizard Loose" celebrates groupies; "The Bus Driver Blues" thumbs its nose at a former drummer who quit the band for a day job. The nudge-nudge lyrics are matched by the musical aplomb of drummer Doug Inglis' in-the-pocket wallop, guitarist Gino Scarpelli's Jimi Hendrix and John Lee Hooker-inspired licks, and singer/bassist Greg Godovitz's glammy hamminess and endearingly hoarse vocals. Godovitz wipes the grin off his mug for the overblown power ballad "I'm Losing You" and the superior "Under My Hat," a Latin-tinged slow burner. But his humility is short-lived; by the end of the adrenalized rock-dream closer "Hard Years," he's crowing, "this band's moving on an uphill ride. Believe it." Goddo obviously did, and that's a big part of this album's charm. It was reissued in 2001 by Canadian label Bullseye. allmusic
Gino Scarpelli - bass, guitar, percussion
Greg Godovitz - bass, guitar, vocals, voices
Dwayne Ford - Fender rhodes, keyboards, micro Moog, piano
Doug Inglis - drums, percussion, background vocals


Трекер:  [ 23-Дек-2012 11:10 ]

  

Скачать .torrent

Размер .torrent файла 20 KB


Размер: 248 MB
Хэш (hash) релиза: ca57fdb96d06896ac10f19b9ee44e7996e6aead3

Торренты, похожие на Goddo - Goddo - 1977, скачать торрент

Форум Название Автор Размер S L Добавлен
Rосk | Mеtаl | Аltеrnаtivе, Рunk, Indереndеnt (mр3) ·· (Hard Rock) Goddo - Коллекция (11 релизов) - 1977-2004, MP3, 192-320 kbps Galfimbul 13707902251.28 GB 0 0 1480617275

21:34

1-Дек-16

Еще никто не оставлял запись к записи скачать торрент Goddo - Goddo - 1977, . Будь первым!

!Обратная связь