Скачать через торрент музыку Adlers Appetite бесплатно без регистрации torrent

Если у вас наблюдаются проблемы со скриншотами, переходом по ссылками, скачиванием торрентов - проблемы в блокировщике рекламы AdBlock. #хорошегоДня!


Статистика раздачи
Размер:  146 MB   |    Зарегистрирован:  4 года 8 месяцев   |    .torrent скачан:  11 раз   |   
Раздают:  1  
   
Загрузка...
 
Автор Сообщение

Galfimbul

avatar Galfimbul


Adler's Appetite
Adler's Appetite (EP)
Жанр: Hard Rock, Glam
Год издания: 2005
Страна: USA
Аудиокодек: FLAC (*.flac)
Тип рипа: tracks+.cue
Битрейт аудио: lossless
Продолжительность: 00:22:28
Источник (релизер): [What.CD]
Наличие сканов в содержимом раздачи: Front, Back
Треклист:
01. Suicide (3:59)
02. 99 (3:32)
03. Empty (4:07)
04. Hollywood (3:56)
05. Little Dancer (3:15)
06. Draw the Line (3:38)
Exact Audio Copy V1.0 beta 1 from 15. November 2010

EAC extraction logfile from 26. December 2010, 18:35

Adler's Appetite / Adler's Appetite

Used drive : HL-DT-STBD-RE GGW-H20L Adapter: 1 ID: 4

Read mode : SecureUtilize accurate stream : YesDefeat audio cache : YesMake use of C2 pointers : No

Read offset correction : 667Overread into Lead-In and Lead-Out : NoFill up missing offset samples with silence : YesDelete leading and trailing silent blocks : NoNull samples used in CRC calculations : YesUsed interface : Native Win32 interface for Win NT & 2000Gap handling : Appended to previous track

Used output format : User Defined EncoderSelected bitrate : 320 kBit/sQuality : HighAdd ID3 tag : NoCommand line compressor : C:\Program Files (x86)\Exact Audio Copy\Flac\flac.exeAdditional command line options : -V -8 -T "artist=%a" -T "title=%t" -T "album=%g" -T "date=%y" -T "tracknumber=%n" -T "genre=%m" %s

TOC of the extracted CD

Track | Start | Length | Start sector | End sector --------------------------------------------------------- 1 | 0:00.00 | 3:58.58 | 0 | 17907 2 | 3:58.58 | 3:32.33 | 17908 | 33840 3 | 7:31.16 | 4:06.72 | 33841 | 52362 4 | 11:38.13 | 3:56.08 | 52363 | 70070 5 | 15:34.21 | 3:15.03 | 70071 | 84698 6 | 18:49.24 | 3:38.19 | 84699 | 101067

Track 1

Filename C:\EACrips\Adler's Appetite - 2005 - Adler's Appetite\01 - Suicide.wav

Pre-gap length 0:00:02.00

Peak level 100.0 % Extraction speed 1.0 X Track quality 100.0 % Test CRC C5189CA0 Copy CRC C5189CA0 Track not present in AccurateRip database Copy OK

Track 2

Filename C:\EACrips\Adler's Appetite - 2005 - Adler's Appetite\02 - 99.wav

Pre-gap length 0:00:02.00

Peak level 100.0 % Extraction speed 1.2 X Track quality 100.0 % Test CRC DDE74875 Copy CRC DDE74875 Track not present in AccurateRip database Copy OK

Track 3

Filename C:\EACrips\Adler's Appetite - 2005 - Adler's Appetite\03 - Empty.wav

Pre-gap length 0:00:02.00

Peak level 98.4 % Extraction speed 1.3 X Track quality 100.0 % Test CRC 3DD12490 Copy CRC 3DD12490 Track not present in AccurateRip database Copy OK

Track 4

Filename C:\EACrips\Adler's Appetite - 2005 - Adler's Appetite\04 - Hollywood.wav

Pre-gap length 0:00:02.00

Peak level 98.0 % Extraction speed 1.1 X Track quality 99.9 % Test CRC E6DAEE34 Copy CRC E6DAEE34 Track not present in AccurateRip database Copy OK

Track 5

Filename C:\EACrips\Adler's Appetite - 2005 - Adler's Appetite\05 - Little Dancer.wav

Pre-gap length 0:00:02.00

Peak level 98.9 % Extraction speed 1.4 X Track quality 100.0 % Test CRC F318F8D1 Copy CRC F318F8D1 Track not present in AccurateRip database Copy OK

Track 6

Filename C:\EACrips\Adler's Appetite - 2005 - Adler's Appetite\06 - Draw The Line.wav

Pre-gap length 0:00:02.00

Peak level 100.0 % Extraction speed 1.4 X Track quality 100.0 % Test CRC DFF4FEBB Copy CRC DFF4FEBB Track not present in AccurateRip database Copy OK

None of the tracks are present in the AccurateRip database

No errors occurred

End of status report
REM GENRE RockREM DATE 2005REM DISCID 33054306REM COMMENT "ExactAudioCopy v1.0b1"FILE "01 - Suicide.wav" WAVE TRACK 01 AUDIO INDEX 01 00:00:00 TRACK 02 AUDIO INDEX 00 03:56:58FILE "02 - 99.wav" WAVE INDEX 01 00:00:00 TRACK 03 AUDIO INDEX 00 03:30:33FILE "03 - Empty.wav" WAVE INDEX 01 00:00:00 TRACK 04 AUDIO INDEX 00 04:04:72FILE "04 - Hollywood.wav" WAVE INDEX 01 00:00:00 TRACK 05 AUDIO INDEX 00 03:54:08FILE "05 - Little Dancer.wav" WAVE INDEX 01 00:00:00 TRACK 06 AUDIO INDEX 00 03:13:03FILE "06 - Draw The Line.wav" WAVE INDEX 01 00:00:00
AUDIOCHECKER v2.0 beta (build 457) - by Dester - <a href="mailto:opdester@freemail.hu" class="postLink">opdester@freemail.hu</a>~~~~~~~~~~~~~~~~~~~~~~~~~~~~~~~~~~

Начато: пятница, 14. 12. 2012. - 9:59.41Найдено файлов: 6

1 -===- D:\Раздачи Lossless ( J.)\Adler's Appetite - Adler's Appetite (2005) [FLAC]\01 - Suicide.flac Извлечение успешно выполнено Заключение: этот трек - CDDA с вероятностью 100% Временный файл удалён.

2 -===- D:\Раздачи Lossless ( J.)\Adler's Appetite - Adler's Appetite (2005) [FLAC]\02 - 99.flac Извлечение успешно выполнено Заключение: этот трек - CDDA с вероятностью 100% Временный файл удалён.

3 -===- D:\Раздачи Lossless ( J.)\Adler's Appetite - Adler's Appetite (2005) [FLAC]\03 - Empty.flac Извлечение успешно выполнено Заключение: этот трек - CDDA с вероятностью 100% Временный файл удалён.

4 -===- D:\Раздачи Lossless ( J.)\Adler's Appetite - Adler's Appetite (2005) [FLAC]\04 - Hollywood.flac Извлечение успешно выполнено Заключение: этот трек - CDDA с вероятностью 100% Временный файл удалён.

5 -===- D:\Раздачи Lossless ( J.)\Adler's Appetite - Adler's Appetite (2005) [FLAC]\05 - Little Dancer.flac Извлечение успешно выполнено Заключение: этот трек - CDDA с вероятностью 100% Временный файл удалён.

6 -===- D:\Раздачи Lossless ( J.)\Adler's Appetite - Adler's Appetite (2005) [FLAC]\06 - Draw The Line.flac Извлечение успешно выполнено Заключение: этот трек - CDDA с вероятностью 100% Временный файл удалён.

Завершено: пятница, 14. 12. 2012. - 10:03.08 (Время операции: 0:03.27)


Трекер:  [ 23-Дек-2012 11:10 ]

  

Скачать .torrent

Размер .torrent файла 12 KB


Размер: 146 MB
Хэш (hash) релиза: 664bc9da783b5490d998e9245e850c771b234c1e

Еще никто не оставлял запись к записи скачать торрент Adlers Appetite . Будь первым!

!Обратная связь