Скачать через торрент музыку Ray Smith - Shake Around бесплатно без регистрации torrent

Если у вас наблюдаются проблемы со скриншотами, переходом по ссылками, скачиванием торрентов - проблемы в блокировщике рекламы AdBlock. #хорошегоДня!


Статистика раздачи
Размер:  172 MB   |    Зарегистрирован:  4 года 11 месяцев   |    .torrent скачан:  12 раз   |   
Раздают:  1  
   
Загрузка...
 
Автор Сообщение

Galfimbul

avatar Galfimbul


Ray Smith / Shake Around

Жанр: Rockabilly
Страна-производитель диска: EEC
Год издания: 1995
Издатель (лейбл): Charly Records
Номер по каталогу: CP CD 817
Страна: USA
Аудиокодек: FLAC (*.flac)
Тип рипа: image+.cue
Битрейт аудио: lossless
Продолжительность: 69:22
Источник (релизер): AUDELAS KINGDOM
Наличие сканов в содержимом раздачи: да
01. Breakup
02. Why Why Why
03. Willing And Ready
04. So Young
05. Right Behind You Baby
06. You Made A Hit
07. Shake Around
08. Rockin' Bandit (Dubbed)
09. Sail Away
10. Forever Youngs
11. I Wont't Miss You
12. Travelin' Salesman
13. Candy Doll
14. Hey Oss Man
15. Life Is A Flower
16. Little Girl
17. I Wanna Be Free
18. Two Pennies And A String
19. This Girl Was Meant For Me
20. Rockin' Bandit (Undubbed)
21. Why Why Why (Alternate)
22. Rockin' Robin
23. Robbin' The Cradle
Exact Audio Copy V1.0 beta 2 from 29. April 2011

Отчёт EAC об извлечении, выполненном 13. декабря 2012, 7:56

Ray Smith / Shake Around

Дисковод: ATAPI iHAS124 B Adapter: 1 ID: 1

Режим чтения : ДостоверностьИспользование точного потока : ДаОтключение кэша аудио : ДаИспользование указателей C2 : Нет

Коррекция смещения при чтении : 6Способность читать области Lead-in и Lead-out : НетЗаполнение пропущенных сэмплов тишиной : ДаУдаление блоков с тишиной в начале и конце : НетПри вычислениях CRC использовались нулевые сэмплы : ДаИнтерфейс : Встроенный Win32-интерфейс для Win NT/2000

Выходной формат : Пользовательский кодировщикВыбранный битрейт : 1024 kBit/sКачество : ВысокийДобавление ID3-тега : НетУтилита сжатия : C:\Program Files\Exact Audio Copy\FLAC\FLAC.EXEДополнительные параметры : -6 -V -T "ARTIST=%artist%" -T "TITLE=%title%" -T "ALBUM=%albumtitle%" -T "DATE=%year%" -T "TRACKNUMBER=%tracknr%" -T "GENRE=%genre%" -T "COMMENT=%comment%" -T "BAND=%albuminterpret%" -T "COMPOSER=%composer%" %haslyrics%--tag-from-

TOC извлечённого CD

Трек | Старт | Длительность | Начальный сектор | Конечный сектор --------------------------------------------------------------------- 1 | 0:00.33 | 1:56.40 | 33 | 8772 2 | 1:56.73 | 2:21.60 | 8773 | 19407 3 | 4:18.58 | 2:11.40 | 19408 | 29272 4 | 6:30.23 | 2:26.72 | 29273 | 40294 5 | 8:57.20 | 2:24.60 | 40295 | 51154 6 | 11:22.05 | 2:24.43 | 51155 | 61997 7 | 13:46.48 | 2:50.60 | 61998 | 74807 8 | 16:37.33 | 2:09.07 | 74808 | 84489 9 | 18:46.40 | 2:28.10 | 84490 | 95599 10 | 21:14.50 | 3:06.10 | 95600 | 109559 11 | 24:20.60 | 2:08.60 | 109560 | 119219 12 | 26:29.45 | 3:05.55 | 119220 | 133149 13 | 29:35.25 | 2:28.63 | 133150 | 144312 14 | 32:04.13 | 1:58.00 | 144313 | 153162 15 | 34:02.13 | 2:03.05 | 153163 | 162392 16 | 36:05.18 | 2:05.10 | 162393 | 171777 17 | 38:10.28 | 2:09.67 | 171778 | 181519 18 | 40:20.20 | 2:36.65 | 181520 | 193284 19 | 42:57.10 | 1:01.28 | 193285 | 197887 20 | 43:58.38 | 2:18.50 | 197888 | 208287 21 | 46:17.13 | 2:20.67 | 208288 | 218854 22 | 48:38.05 | 2:26.58 | 218855 | 229862 23 | 51:04.63 | 2:11.27 | 229863 | 239714

Характеристики диапазона извлечения и сообщения об ошибках

Выбранный диапазон

Имя файла D:\Muzika\Ray Smith - Shake Around (1995)\Ray Smith - Shake Around.wav

Пиковый уровень 91.8 % Скорость извлечения 3.0 X Качество диапазона 100.0 % CRC теста 55D5EA66 CRC копии 55D5EA66 Копирование... OK

Ошибок не произошло

AccurateRip: сводка

Трек 1 отсутствует в базе данныхТрек 2 отсутствует в базе данныхТрек 3 отсутствует в базе данныхТрек 4 отсутствует в базе данныхТрек 5 отсутствует в базе данныхТрек 6 отсутствует в базе данныхТрек 7 отсутствует в базе данныхТрек 8 отсутствует в базе данныхТрек 9 отсутствует в базе данныхТрек 10 отсутствует в базе данныхТрек 11 отсутствует в базе данныхТрек 12 отсутствует в базе данныхТрек 13 отсутствует в базе данныхТрек 14 отсутствует в базе данныхТрек 15 отсутствует в базе данныхТрек 16 отсутствует в базе данныхТрек 17 отсутствует в базе данныхТрек 18 отсутствует в базе данныхТрек 19 отсутствует в базе данныхТрек 20 отсутствует в базе данныхТрек 21 отсутствует в базе данныхТрек 22 отсутствует в базе данныхТрек 23 отсутствует в базе данных

Ни одного трека нет в базе AccurateRip

Конец отчёта

==== Контрольная сумма отчёта 5C331B91609040B53E196D6507127229C077849FCAC354133AC1691D90594674 ====


Трекер:  [ 14-Дек-2012 11:11 ]

  

Скачать .torrent

Размер .torrent файла 14 KB


Размер: 172 MB
Хэш (hash) релиза: 624b6f383b9d4df7cd7bf7b125a4f15d2bf7b139

Еще никто не оставлял запись к записи скачать торрент Ray Smith - Shake Around . Будь первым!

!Обратная связь