Скачать через торрент музыку Sparks - Kimono My House - 1974, APE бесплатно без регистрации torrent

Если у вас наблюдаются проблемы со скриншотами, переходом по ссылками, скачиванием торрентов - проблемы в блокировщике рекламы AdBlock. #хорошегоДня!


Статистика раздачи
Размер:  224 MB   |    Зарегистрирован:  4 года 11 месяцев   |    .torrent скачан:  16 раз   |   
Раздают:  1  
   
Загрузка...
 
Автор Сообщение

Galfimbul

avatar Galfimbul


Sparks / Kimono My House

Жанр: Art-Rock
Страна-производитель диска: Japan
Год издания: 1974
Издатель (лейбл): Island Rec.
Номер по каталогу: PHCR-4828
Страна: USA
Аудиокодек: APE (*.ape)
Тип рипа: image+.cue
Битрейт аудио: lossless
Продолжительность: 0:36:39
Источник (релизер): Собственный релиз
Наличие сканов в содержимом раздачи: нет
Треклист:
1. This Town Ain't Be Enough For Both Of Us
2. Amateur Hour
3. Falling In Love With Myself Again
4. Here In Heaven
5. Thank God It's Not Christmas
6. Hasta Manana Monsieur
7. Talent Is An Asset
8. Complaints
9. In My Family
10. Equator
Exact Audio Copy V0.99 prebeta 5 from 4. May 2009

Отчёт EAC об извлечении, выполненном 13. декабря 2012, 10:54

Sparks / Kimono My House

Дисковод: Optiarc DVD RW AD-7200S Adapter: 3 ID: 0

Режим чтения : ДостоверностьИспользование точного потока : ДаОтключение кэша аудио : ДаИспользование указателей C2 : Нет

Коррекция смещения при чтении : 48Способность читать области Lead-in и Lead-out : НетЗаполнение пропущенных сэмплов тишиной : ДаУдаление блоков с тишиной в начале и конце : НетПри вычислениях CRC использовались нулевые сэмплы : ДаИнтерфейс : Встроенный Win32-интерфейс для Win NT/2000

Выходной формат : Внутренние WAV-операцииФормат сэмплов : 44.100 Гц; 16 бит; стерео

TOC извлечённого CD

Трек | Старт | Длительность | Начальный сектор | Конечный сектор --------------------------------------------------------------------- 1 | 0:00.37 | 3:07.23 | 37 | 14084 2 | 3:07.60 | 3:41.02 | 14085 | 30661 3 | 6:48.62 | 3:05.13 | 30662 | 44549 4 | 9:54.00 | 2:51.47 | 44550 | 57421 5 | 12:45.47 | 5:09.38 | 57422 | 80634 6 | 17:55.10 | 3:53.10 | 80635 | 98119 7 | 21:48.20 | 3:27.10 | 98120 | 113654 8 | 25:15.30 | 2:54.20 | 113655 | 126724 9 | 28:09.50 | 3:49.22 | 126725 | 143921 10 | 31:58.72 | 4:40.20 | 143922 | 164941

Характеристики диапазона извлечения и сообщения об ошибках

Выбранный диапазон

Имя файла C:\Users\Bishop\Desktop\Sparks - Kimono My House(Japan)\Sparks - Kimono My House.wav

Пиковый уровень 94.4 % Качество диапазона 100.0 % CRC теста CB940232 CRC копии CB940232 Копирование... OK

Ошибок не произошло

AccurateRip: сводка

Трек 1 точность не определена (достоверность 3) [A33CEB41], AccurateRip вернул [279CD021]Трек 2 точность не определена (достоверность 4) [763C1DFF], AccurateRip вернул [F2370CBF]Трек 3 точность не определена (достоверность 4) [EFC5A078], AccurateRip вернул [34325D28]Трек 4 точность не определена (достоверность 4) [E01F858A], AccurateRip вернул [EB0B69BA]Трек 5 точность не определена (достоверность 4) [0C9F9E66], AccurateRip вернул [B4771676]Трек 6 точность не определена (достоверность 4) [C16A1050], AccurateRip вернул [190B2130]Трек 7 точность не определена (достоверность 4) [955AEF4F], AccurateRip вернул [3BE1F73F]Трек 8 точность не определена (достоверность 4) [1A4BB77A], AccurateRip вернул [94A7E9AA]Трек 9 точность не определена (достоверность 4) [07FCEC5A], AccurateRip вернул [E1EBF4DA]Трек 10 точность не определена (достоверность 4) [1215E19A], AccurateRip вернул [A0E380EA]

Ни один трек не прошёл проверки на точностьВ вашей базе может быть иной вариант штамповки диска

Конец отчёта
REM GENRE RockREM DATE 1974REM DISCID 8008970AREM COMMENT "ExactAudioCopy v0.99pb5"CATALOG 0000000000000PERFORMER "Sparks"TITLE "Kimono My House"FILE "Sparks - Kimono My House.ape" WAVE TRACK 01 AUDIO TITLE "This Town Ain't Big Enough For Both Of Us" PERFORMER "Sparks" INDEX 00 00:00:00 INDEX 01 00:00:37 TRACK 02 AUDIO TITLE "Amateur Hour" PERFORMER "Sparks" INDEX 00 03:05:28 INDEX 01 03:07:60 TRACK 03 AUDIO TITLE "Falling In Love With Myself Again" PERFORMER "Sparks" INDEX 00 06:43:41 INDEX 01 06:48:62 TRACK 04 AUDIO TITLE "Here In Heaven" PERFORMER "Sparks" INDEX 00 09:50:56 INDEX 01 09:54:00 TRACK 05 AUDIO TITLE "Thank God It's Not Christmas" PERFORMER "Sparks" INDEX 00 12:40:06 INDEX 01 12:45:47 TRACK 06 AUDIO TITLE "Hasta Manana, Monsieur" PERFORMER "Sparks" INDEX 00 17:52:31 INDEX 01 17:55:10 TRACK 07 AUDIO TITLE "Talent Is An Asset" PERFORMER "Sparks" INDEX 00 21:42:51 INDEX 01 21:48:20 TRACK 08 AUDIO TITLE "Complaints" PERFORMER "Sparks" INDEX 00 25:07:68 INDEX 01 25:15:30 TRACK 09 AUDIO TITLE "In My Family" PERFORMER "Sparks" INDEX 00 28:05:23 INDEX 01 28:09:50 TRACK 10 AUDIO TITLE "Equator" PERFORMER "Sparks" INDEX 00 31:55:66 INDEX 01 31:58:72


Трекер:  [ 14-Дек-2012 11:11 ]

  

Скачать .torrent

Размер .torrent файла 18 KB


Размер: 224 MB
Хэш (hash) релиза: eab85458b25a24913d221883fd852de74bd6cc59

Еще никто не оставлял запись к записи скачать торрент Sparks - Kimono My House - 1974, APE . Будь первым!

!Обратная связь