Скачать через торрент музыку Sparks - Propaganda - 1974, APE бесплатно без регистрации torrent

Если у вас наблюдаются проблемы со скриншотами, переходом по ссылками, скачиванием торрентов - проблемы в блокировщике рекламы AdBlock. #хорошегоДня!


Статистика раздачи
Размер:  213 MB   |    Зарегистрирован:  4 года 10 месяцев   |    .torrent скачан:  29 раз   |   
Раздают:  1  
   
Загрузка...
 
Автор Сообщение

Galfimbul

avatar Galfimbul


Sparks / Propaganda

Жанр: Art-Rock
Страна-производитель диска: Japan
Год издания: 1974
Издатель (лейбл): Island Rec.
Номер по каталогу: PHCR-4829
Страна: USA
Аудиокодек: APE (*.ape)
Тип рипа: image+.cue
Битрейт аудио: lossless
Продолжительность: 0:33:48
Источник (релизер): Собственный релиз
Наличие сканов в содержимом раздачи: нет
Треклист:
1. Propaganda
2. At Home At Work At Play
3. Reinforcements
4. B.C.
5. Thanks But No Thanks
6. Don't Leave Me Alone With Her
7. Never Turn Your Back On Mother Earth
8. Something For The Girl With Everything
9. Achoo
10. Who Don't Like Kids
11. Bon Voyage
Exact Audio Copy V0.99 prebeta 5 from 4. May 2009

Отчёт EAC об извлечении, выполненном 12. декабря 2012, 9:56

Sparks / Propaganda

Дисковод: Optiarc DVD RW AD-7200S Adapter: 3 ID: 0

Режим чтения : ДостоверностьИспользование точного потока : ДаОтключение кэша аудио : ДаИспользование указателей C2 : Нет

Коррекция смещения при чтении : 48Способность читать области Lead-in и Lead-out : НетЗаполнение пропущенных сэмплов тишиной : ДаУдаление блоков с тишиной в начале и конце : НетПри вычислениях CRC использовались нулевые сэмплы : ДаИнтерфейс : Встроенный Win32-интерфейс для Win NT/2000

Выходной формат : Внутренние WAV-операцииФормат сэмплов : 44.100 Гц; 16 бит; стерео

TOC извлечённого CD

Трек | Старт | Длительность | Начальный сектор | Конечный сектор --------------------------------------------------------------------- 1 | 0:00.00 | 0:22.65 | 0 | 1714 2 | 0:22.65 | 3:06.27 | 1715 | 15691 3 | 3:29.17 | 3:55.38 | 15692 | 33354 4 | 7:24.55 | 2:13.45 | 33355 | 43374 5 | 9:38.25 | 4:14.65 | 43375 | 62489 6 | 13:53.15 | 3:02.65 | 62490 | 76204 7 | 16:56.05 | 2:28.27 | 76205 | 87331 8 | 19:24.32 | 2:17.65 | 87332 | 97671 9 | 21:42.22 | 3:34.65 | 97672 | 113786 10 | 25:17.12 | 3:37.25 | 113787 | 130086 11 | 28:54.37 | 4:53.50 | 130087 | 152111

Характеристики диапазона извлечения и сообщения об ошибках

Выбранный диапазон

Имя файла C:\Users\Bishop\Desktop\Sparks - Propaganda Japan)\Sparks - Propaganda.wav

Пиковый уровень 100.0 % Качество диапазона 99.9 % CRC теста A61F855E CRC копии 25A5927C Копирование... OK

Ошибок не произошло

AccurateRip: сводка

Трек 1 точное извлечение (доверие 1) [13587273]Трек 2 точное извлечение (доверие 1) [4F286A1D]Трек 3 точное извлечение (доверие 1) [8AB7CB2B]Трек 4 точное извлечение (доверие 1) [4CB38405]Трек 5 точное извлечение (доверие 1) [B8727472]Трек 6 точное извлечение (доверие 1) [62DE2FF2]Трек 7 точное извлечение (доверие 1) [4C7EAFD4]Трек 8 точное извлечение (доверие 1) [754AC0E3]Трек 9 точное извлечение (доверие 1) [D8ACAB40]Трек 10 точное извлечение (доверие 1) [19385976]Трек 11 точное извлечение (доверие 1) [AFE00801]

Все треки извлечены точно

Конец отчёта
REM GENRE RockREM DATE 1974REM DISCID 7807EC0BREM COMMENT ExactAudioCopy v0.99pb5CATALOG 4988011355684PERFORMER "Sparks"TITLE "Propaganda"FILE "Sparks - Propaganda.ape" WAVE TRACK 01 AUDIO TITLE "Propaganda" INDEX 01 00:00:00 TRACK 02 AUDIO TITLE "At Home, At Work, At Play" INDEX 01 00:22:65 TRACK 03 AUDIO TITLE "Reinforcements" INDEX 01 03:29:17 TRACK 04 AUDIO TITLE "B.C." INDEX 00 07:22:12 INDEX 01 07:24:55 TRACK 05 AUDIO TITLE "Thanks But No Thanks" INDEX 00 09:35:70 INDEX 01 09:38:25 TRACK 06 AUDIO TITLE "Don't Leave Me Alone With Her" INDEX 00 13:50:47 INDEX 01 13:53:15 TRACK 07 AUDIO TITLE "Never Turn Your Back On Mother Earth" INDEX 00 16:53:50 INDEX 01 16:56:05 TRACK 08 AUDIO TITLE "Something For The Girl With Everything" INDEX 00 19:23:05 INDEX 01 19:24:32 TRACK 09 AUDIO TITLE "Achoo" INDEX 00 21:40:40 INDEX 01 21:42:22 TRACK 10 AUDIO TITLE "Who Don't Like Kids" INDEX 00 25:14:57 INDEX 01 25:17:12 TRACK 11 AUDIO TITLE "Bon Voyage" INDEX 00 28:52:15 INDEX 01 28:54:37


Трекер:  [ 14-Дек-2012 11:11 ]

  

Скачать .torrent

Размер .torrent файла 17 KB


Размер: 213 MB
Хэш (hash) релиза: f3ffa774adf160e450c0a0a6bebd6565d135130d

Еще никто не оставлял запись к записи скачать торрент Sparks - Propaganda - 1974, APE . Будь первым!

!Обратная связь