Скачать через торрент музыку Morphine - Eleven OClock - 1997, APE бесплатно без регистрации torrent

Если у вас наблюдаются проблемы со скриншотами, переходом по ссылками, скачиванием торрентов - проблемы в блокировщике рекламы AdBlock. #хорошегоДня!


Статистика раздачи
Размер:  101 MB   |    Зарегистрирован:  4 года 8 месяцев   |    .torrent скачан:  14 раз   |   
Раздают:  1  
   
Загрузка...
 
Автор Сообщение

Galfimbul

avatar Galfimbul


Morphine / Eleven O'Clock

Жанр: Rock
Страна-производитель диска: Japan
Год издания: 1997
Издатель (лейбл): Rukodisc
Номер по каталогу: VACK-1131
Страна: USA
Аудиокодек: APE (*.ape)
Тип рипа: image+.cue
Битрейт аудио: lossless
Продолжительность: 0:16:21
Источник (релизер): собственный релиз
Наличие сканов в содержимом раздачи: нет
Треклист:
1. Eleven O'Clock
2. Kerouac
3. Eleven O'Clock (Hi-N-Dry Version)
4. Virgin Bride
5. Anita
Exact Audio Copy V0.99 prebeta 5 from 4. May 2009

Отчёт EAC об извлечении, выполненном 12. декабря 2012, 6:42

Morphine / Eleven O'Clock

Дисковод: Optiarc DVD RW AD-7200S Adapter: 3 ID: 0

Режим чтения : ДостоверностьИспользование точного потока : ДаОтключение кэша аудио : ДаИспользование указателей C2 : Нет

Коррекция смещения при чтении : 48Способность читать области Lead-in и Lead-out : НетЗаполнение пропущенных сэмплов тишиной : ДаУдаление блоков с тишиной в начале и конце : НетПри вычислениях CRC использовались нулевые сэмплы : ДаИнтерфейс : Встроенный Win32-интерфейс для Win NT/2000

Выходной формат : Внутренние WAV-операцииФормат сэмплов : 44.100 Гц; 16 бит; стерео

TOC извлечённого CD

Трек | Старт | Длительность | Начальный сектор | Конечный сектор --------------------------------------------------------------------- 1 | 0:00.00 | 3:09.37 | 0 | 14211 2 | 3:09.37 | 2:55.00 | 14212 | 27336 3 | 6:04.37 | 3:30.38 | 27337 | 43124 4 | 9:35.00 | 3:30.37 | 43125 | 58911 5 | 13:05.37 | 3:15.10 | 58912 | 73546

Характеристики диапазона извлечения и сообщения об ошибках

Выбранный диапазон

Имя файла C:\Users\Bishop\Desktop\Morphine - Eleven O'Clock - 1997\Morphine - Eleven O'Clock.wav

Пиковый уровень 100.0 % Качество диапазона 100.0 % CRC теста 6497ACFD CRC копии 6497ACFD Копирование... OK

Ошибок не произошло

AccurateRip: сводка

Трек 1 нет в базе данныхТрек 2 нет в базе данныхТрек 3 нет в базе данныхТрек 4 нет в базе данныхТрек 5 нет в базе данных

Ни одного трека нет в базе AccurateRip

Конец отчёта
REM GENRE RockREM DATE 1997REM DISCID 4503D405REM COMMENT ExactAudioCopy v0.99pb5PERFORMER "Morphine"TITLE "Eleven O'Clock"FILE "Morphine - Eleven O'Clock.ape" WAVE TRACK 01 AUDIO TITLE "Eleven O'Clock" INDEX 01 00:00:00 TRACK 02 AUDIO TITLE "Kerouac" INDEX 00 03:08:42 INDEX 01 03:09:37 TRACK 03 AUDIO TITLE "Eleven O'Clock (Hi-N-dry Version)" INDEX 00 06:03:07 INDEX 01 06:04:37 TRACK 04 AUDIO TITLE "Virgin Bride" INDEX 00 09:33:50 INDEX 01 09:35:00 TRACK 05 AUDIO TITLE "Anita" INDEX 00 13:03:45 INDEX 01 13:05:37


Трекер:  [ 14-Дек-2012 11:11 ]

  

Скачать .torrent

Размер .torrent файла 16 KB


Размер: 101 MB
Хэш (hash) релиза: 349efc7dfdd1dcee20ea11312b86ad766db7509e

Еще никто не оставлял запись к записи скачать торрент Morphine - Eleven OClock - 1997, APE . Будь первым!

!Обратная связь