Скачать через торрент музыку Outlaws - Bring It Back Alive - 1978, APE бесплатно без регистрации torrent

Если у вас наблюдаются проблемы со скриншотами, переходом по ссылками, скачиванием торрентов - проблемы в блокировщике рекламы AdBlock. #хорошегоДня!


Статистика раздачи
Размер:  474 MB   |    Зарегистрирован:  4 года 11 месяцев   |    .torrent скачан:  13 раз   |   
Раздают:  1  
   
Загрузка...
 
Автор Сообщение

Galfimbul

avatar Galfimbul


Outlaws / Bring It Back Alive

Жанр: Southern Rock
Год издания: 1978
Аудиокодек: APE (*.ape)
Тип рипа: image+.cue
Битрейт аудио: lossless
Источник (релизер): emule
Наличие сканов в содержимом раздачи: да
Треклист:
01 Intro (Relay Breakdown) 0:58
02 Stick Around For Rock & Roll 9:30
03 Lover Boy 4:10
04 There Goes Another Love Song 4:12
05 Freeborn Man 5:50
06 Prisoner 7:21
07 I Hope You Don't Mind 5:40
08 Song For You 3:57
09 Cold And Lonesome 3:35
10 Holiday 4:54
11 Hurry Sundown 4:17
12 Green Grass And High Tides 20:58
Exact Audio Copy V1.0 beta 2 from 29. April 2011

Отчёт EAC об извлечении, выполненном 20. ноября 2012, 21:43

The Outlaws / Bring It Back Alive

Дисковод: _NEC DV-5800C Adapter: 3 ID: 1

Режим чтения : Достоверность
Использование точного потока : Да
Отключение кэша аудио : Да
Использование указателей C2 : Нет

Коррекция смещения при чтении : 12
Способность читать области Lead-in и Lead-out : Нет
Заполнение пропущенных сэмплов тишиной : Да
Удаление блоков с тишиной в начале и конце : Нет
При вычислениях CRC использовались нулевые сэмплы : Нет
Интерфейс : Встроенный Win32-интерфейс для Win NT/2000

Выходной формат : Внутренние WAV-операции
Формат сэмплов : 44.100 Гц; 16 бит; стерео

TOC извлечённого CD

Трек | Старт | Длительность | Начальный сектор | Конечный сектор
---------------------------------------------------------------------
1 | 0:00.00 | 0:58.62 | 0 | 4411
2 | 0:58.62 | 9:30.28 | 4412 | 47189
3 | 10:29.15 | 4:10.47 | 47190 | 65986
4 | 14:39.62 | 4:12.55 | 65987 | 84941
5 | 18:52.42 | 5:50.25 | 84942 | 111216
6 | 24:42.67 | 7:21.55 | 111217 | 144346
7 | 32:04.47 | 5:40.28 | 144347 | 169874
8 | 37:45.00 | 3:57.10 | 169875 | 187659
9 | 41:42.10 | 3:35.25 | 187660 | 203809
10 | 45:17.35 | 4:54.32 | 203810 | 225891
11 | 50:11.67 | 4:17.68 | 225892 | 245234
12 | 54:29.60 | 20:58.05 | 245235 | 339589

Характеристики диапазона извлечения и сообщения об ошибках

Выбранный диапазон

Имя файла D:\The Outlaws - Bring It Back Alive.wav

Пиковый уровень 100.0 %
Скорость извлечения 7.1 X
Качество диапазона 99.9 %
CRC копии C4E992DA
Копирование... OK

Ошибок не произошло

AccurateRip: сводка

Трек 1 : извлечено точно (доверие 2) [D1476C6C] (AR v2)
Трек 2 : извлечено точно (доверие 2) [193B74D0] (AR v2)
Трек 3 : извлечено точно (доверие 2) [9ADEEA7C] (AR v2)
Трек 4 : извлечено точно (доверие 2) [B750D31E] (AR v2)
Трек 5 : извлечено точно (доверие 2) [058F5BC4] (AR v2)
Трек 6 : извлечено точно (доверие 2) [4A8D8C56] (AR v2)
Трек 7 : извлечено точно (доверие 2) [89062F8D] (AR v2)
Трек 8 : извлечено точно (доверие 2) [26211865] (AR v2)
Трек 9 : извлечено точно (доверие 2) [207F709A] (AR v2)
Трек 10 : извлечено точно (доверие 2) [319608C0] (AR v2)
Трек 11 : извлечено точно (доверие 2) [DC4D7CBC] (AR v2)
Трек 12 : извлечено точно (доверие 2) [EFE0AF89] (AR v2)

Все треки извлечены точно

Конец отчёта
REM DISCID 9211AF0C
REM COMMENT "ExactAudioCopy v1.0b2"
PERFORMER "The Outlaws"
TITLE "Bring It Back Alive"
FILE "The Outlaws - Bring It Back Alive.wav" WAVE
TRACK 01 AUDIO
TITLE "Intro (Relay Breakdown)*"
PERFORMER "The Outlaws"
INDEX 01 00:00:00
TRACK 02 AUDIO
TITLE "Stick Around For Rock & Roll"
PERFORMER "The Outlaws"
INDEX 01 00:58:62
TRACK 03 AUDIO
TITLE "Lover Boy"
PERFORMER "The Outlaws"
INDEX 01 10:29:15
TRACK 04 AUDIO
TITLE "There Goes Another Love Song"
PERFORMER "The Outlaws"
INDEX 01 14:39:62
TRACK 05 AUDIO
TITLE "Freeborn Man"
PERFORMER "The Outlaws"
INDEX 01 18:52:42
TRACK 06 AUDIO
TITLE "Prisoner"
PERFORMER "The Outlaws"
INDEX 01 24:42:67
TRACK 07 AUDIO
TITLE "I Hope You Don't Mind"
PERFORMER "The Outlaws"
INDEX 01 32:04:47
TRACK 08 AUDIO
TITLE "Song For You"
PERFORMER "The Outlaws"
INDEX 00 37:43:12
INDEX 01 37:45:00
TRACK 09 AUDIO
TITLE "Cold And Lonesome"
PERFORMER "The Outlaws"
INDEX 01 41:42:10
TRACK 10 AUDIO
TITLE "Holiday"
PERFORMER "The Outlaws"
INDEX 01 45:17:35
TRACK 11 AUDIO
TITLE "Hurry Sundown"
PERFORMER "The Outlaws"
INDEX 01 50:11:67
TRACK 12 AUDIO
TITLE "Green Grass And High Tides"
PERFORMER "The Outlaws"
INDEX 01 54:29:60
-----------------------

DON'T MODIFY THIS FILE

-----------------------

PERFORMER: auCDtect Task Manager, ver. 1.5.1RC6 build 1.5.1.7
Copyright (c) 2008-2010 y-soft. All rights reserved
http://y-soft.org

ANALYZER: auCDtect: CD records authenticity detector, version 0.8.2
Copyright (c) 2004 Oleg Berngardt. All rights reserved.
Copyright (c) 2004 Alexander Djourik. All rights reserved.

FILE: The Outlaws - Bring It Back Alive.ape
Size: 495259136 Hash: 8A4FE865E7CCCF583066B2B4A5D3B91F Accuracy: -m0
Conclusion: CDDA 99%
Signature: 4A6D70CED45EFA4A0DF5B822318052EABC5D0979


Трекер:  [ 14-Дек-2012 11:11 ]

  

Скачать .torrent

Размер .torrent файла 19 KB


Размер: 474 MB
Хэш (hash) релиза: 890dcfe791f44ba1d22c0c07056dd08b4f2e782b

Еще никто не оставлял запись к записи скачать торрент Outlaws - Bring It Back Alive - 1978, APE . Будь первым!

!Обратная связь