Скачать через торрент Доспехи бога 2: Операция Кондор Armour of God 2: Operation Condor Фильм бесплатно в хорошем качестве torrent

Скачивайте на UnionPeer.org фильмы через торрент без регистрации. Новинки кино в хорошем качестве через торрент. На UnionPeer.org можно скачать через торрент фильмы 2014 и 2015 годов. Самые новые фильмы.

Скачать торрент Доспехи бога 2: Операция Кондор Armour of God 2: Operation Condor бесплатно через .torrent фильм мультфильм сериал

Если у вас наблюдаются проблемы со скриншотами, переходом по ссылками, скачиванием торрентов - проблемы в блокировщике рекламы AdBlock. #хорошегоДня!


Статистика раздачи
Размер:  1.29 GB   |    Зарегистрирован:  4 года 8 месяцев   |    .torrent скачан:  135 раз   |   
Раздают:  1  
   
Загрузка...
 
Автор Сообщение

Galfimbul

avatar Galfimbul


Доспехи бога 2: Операция Кондор Armour of God 2: Operation Condor / Fei ying gai wak

Оригинальное название: Armour of God 2: Operation Condor / Fei ying gai wak
Год выпуска: 1991 г.
Страна: Гонконг
Жанр: боевик, комедия, приключения
Продолжительность: 01:46:29
Перевод:

Профессиональный (многоголосый закадровый) НТВ
Профессиональный (многоголосый закадровый) Союз
Профессиональный (двухголосый закадровый) Гланц и и Королева
Авторский (одноголосый закадровый) Дольский
Авторский (одноголосый закадровый) Кашкин
Авторский (одноголосый закадровый) Стилан-Видео
Одноголосый закадровый Неизвестный 1
Одноголосый закадровый Неизвестный 2

Cубтитры: нет
Режиссер: Джеки Чан /Jackie Chan

В ролях: Джеки Чан, Кэрол «До До» Чэн, Ева Кобо, Шоко Икеда, Альдо Самбрелл, Кен Гудман, Стиви Тарталия, Лин Персивал, Брюс Фонтейн, Уэйн Арчер
Описание: Азиатский Ястреб возвращается! На этот раз ему предстоит новая работа, из-за которой наш герой опять приезжает в Мадрид. Некий загадочный миллионер предлагает Ястребу заняться поисками нацистских сокровищ, которые спрятаны в глубине африканской пустыни. Он передает ключ к сокровищнице, соглашается финансировать экспедицию и отправляет с Ястребом попутчицу — специалиста по Африке Аду.
При падении с высоты Джеки Чан зацепился ногой за железную цепь, в результате чего получил растяжение связок и вывих тазобедренного сустава. После падения на землю с этой цепи повредил грудину, сломал несколько ребер.
Съемки длились 8 месяцев, четыре их них ушло на постановку сцены побоища в аэродинамической трубе, не имеющего аналогов в истории кино.
Качество видео:BDRip
Формат: MP4
Видео кодек: H.264
Аудио кодек: AAC
Видео: 480x208 (2.35:1), 23.976 fps, x264 ~680 kbps avg, 0.284 bit/pixel
Аудио 1: AAC-LC VBR 2 channels, 48.0 KHz ~128 Kbps Профессиональный (многоголосый закадровый) НТВ
Аудио 2: AAC-LC VBR 2 channels, 48.0 KHz ~128 Kbps Профессиональный (многоголосый закадровый) Союз
Аудио 3: AAC-LC VBR 2 channels, 48.0 KHz ~128 Kbps Профессиональный (многоголосый закадровый) Гланц и Королева
Аудио 4: AAC-LC VBR 2 channels, 48.0 KHz ~128 Kbps Авторский (одноголосый закадровый) Дольский
Аудио 5: AAC-LC VBR 2 channels, 48.0 KHz ~128 Kbps Авторский (одноголосый закадровый) Кашкин
Аудио 6: AAC-LC VBR 2 channels, 48.0 KHz ~128 Kbps Авторский (одноголосый закадровый) Стилан-Видео
Аудио 7: AAC-LC VBR 2 channels, 48.0 KHz ~128 Kbps Одноголосый закадровый Неизвестный 1
Аудио 8: AAC-LC VBR 2 channels, 48.0 KHz ~128 Kbps Одноголосый закадровый Неизвестный 2
d:\Фильмы\PSP\Каратэ\Armour of God 2 (1991)\Armour of God 2 (1991).mp4
  General
    Complete name : d:\Фильмы\PSP\Каратэ\Armour of God 2 (1991)\Armour of God 2 (1991).mp4
    Format : MPEG-4
    Format profile : Base Media
    Codec ID : isom
    File size : 1.29 GiB
    Duration : 1h 46mn
    Overall bit rate : 1 730 Kbps
    Writing application : XviD4PSP 6.0 / 54.29.105
  Video #1
    ID : 1
    Format : AVC
    Format/Info : Advanced Video Codec
    Format profile : <a href="mailto:Main@L3.0" class="postLink">Main@L3.0</a>
    Format settings, CABAC : Yes
    Format settings, ReFrames : 3 frames
    Codec ID : avc1
    Codec ID/Info : Advanced Video Coding
    Duration : 1h 46mn
    Bit rate : 680 Kbps
    Width : 480 pixels
    Height : 208 pixels
    Display aspect ratio : 2.35:1
    Frame rate mode : Constant
    Frame rate : 23.976 fps
    Color space : YUV
    Chroma subsampling : 4:2:0
    Bit depth : 8 bits
    Scan type : Progressive
    Bits/(Pixel*Frame) : 0.284
    Stream size : 518 MiB (39%)
    Writing library : x264 core 125 r2208 d9d2288
    Encoding settings : cabac=1 / ref=3 / deblock=1:-1:0 / analyse=0x1:0x131 / me=umh / subme=10 / psy=1 / psy_rd=1.00:0.20 / mixed_ref=1 / me_range=32 / chroma_me=1 / trellis=2 / 8x8dct=0 / cqm=0 / deadzone=21,11 / fast_pskip=0 / chroma_qp_offset=-3 / threads=3 / lookahead_threads=1 / sliced_threads=0 / nr=0 / decimate=0 / interlaced=0 / bluray_compat=0 / constrained_intra=0 / bframes=3 / b_pyramid=0 / b_adapt=2 / b_bias=0 / direct=3 / weightb=1 / open_gop=0 / weightp=2 / keyint=250 / keyint_min=23 / scenecut=40 / intra_refresh=0 / rc=2pass / mbtree=0 / bitrate=680 / ratetol=1.0 / qcomp=0.60 / qpmin=0 / qpmax=69 / qpstep=4 / cplxblur=20.0 / qblur=0.5 / ip_ratio=1.40 / pb_ratio=1.30 / aq=1:1.00
  Audio #2
    ID : 2
    Format : AAC
    Format/Info : Advanced Audio Codec
    Format profile : LC
    Codec ID : 40
    Duration : 1h 46mn
    Bit rate mode : Constant
    Bit rate : 128 Kbps
    Channel(s) : 2 channels
    Channel positions : Front: L R
    Sampling rate : 48.0 KHz
    Compression mode : Lossy
    Stream size : 97.3 MiB (7%)
  Audio #3
    ID : 3
    Format : AAC
    Format/Info : Advanced Audio Codec
    Format profile : LC
    Codec ID : 40
    Duration : 1h 46mn
    Bit rate mode : Constant
    Bit rate : 128 Kbps
    Channel(s) : 2 channels
    Channel positions : Front: L R
    Sampling rate : 48.0 KHz
    Compression mode : Lossy
    Stream size : 97.5 MiB (7%)
  Audio #4
    ID : 4
    Format : AAC
    Format/Info : Advanced Audio Codec
    Format profile : LC
    Codec ID : 40
    Duration : 1h 46mn
    Bit rate mode : Constant
    Bit rate : 128 Kbps
    Channel(s) : 2 channels
    Channel positions : Front: L R
    Sampling rate : 48.0 KHz
    Compression mode : Lossy
    Stream size : 97.5 MiB (7%)
  Audio #5
    ID : 5
    Format : AAC
    Format/Info : Advanced Audio Codec
    Format profile : LC
    Codec ID : 40
    Duration : 1h 46mn
    Bit rate mode : Constant
    Bit rate : 128 Kbps
    Channel(s) : 2 channels
    Channel positions : Front: L R
    Sampling rate : 48.0 KHz
    Compression mode : Lossy
    Stream size : 97.5 MiB (7%)
  Audio #6
    ID : 6
    Format : AAC
    Format/Info : Advanced Audio Codec
    Format profile : LC
    Codec ID : 40
    Duration : 1h 46mn
    Bit rate mode : Constant
    Bit rate : 128 Kbps
    Channel(s) : 2 channels
    Channel positions : Front: L R
    Sampling rate : 48.0 KHz
    Compression mode : Lossy
    Stream size : 97.5 MiB (7%)
  Audio #7
    ID : 7
    Format : AAC
    Format/Info : Advanced Audio Codec
    Format profile : LC
    Codec ID : 40
    Duration : 1h 46mn
    Bit rate mode : Constant
    Bit rate : 128 Kbps
    Channel(s) : 2 channels
    Channel positions : Front: L R
    Sampling rate : 48.0 KHz
    Compression mode : Lossy
    Stream size : 97.5 MiB (7%)
  Audio #8
    ID : 8
    Format : AAC
    Format/Info : Advanced Audio Codec
    Format profile : LC
    Codec ID : 40
    Duration : 1h 46mn
    Bit rate mode : Constant
    Bit rate : 128 Kbps
    Channel(s) : 2 channels
    Channel positions : Front: L R
    Sampling rate : 48.0 KHz
    Compression mode : Lossy
    Stream size : 97.5 MiB (7%)
  Audio #9
    ID : 9
    Format : AAC
    Format/Info : Advanced Audio Codec
    Format profile : LC
    Codec ID : 40
    Duration : 1h 46mn
    Bit rate mode : Constant
    Bit rate : 128 Kbps
    Channel(s) : 2 channels
    Channel positions : Front: L R
    Sampling rate : 48.0 KHz
    Compression mode : Lossy
    Stream size : 97.5 MiB (7%)
x264.exe: --pass 2 --bitrate 680 --preset medium --level 3.0 --deblock -1:0 --merange 32 --direct auto --b-adapt 2 --b-pyramid none --trellis 2 --no-fast-pskip --no-dct-decimate --psy-rd 1.00:0.20 --partitions p8x8,b8x8,i4x4,p4x4 --no-8x8dct --subme 10 --me umh --no-mbtree --sar 1:1 --stats "E:\arm2.log" --output "E:\arm2.mp4" "E:\Temp\0008.avs"

avs [info]: 480x208p 1:1 @ 24000/1001 fps (cfr)
x264 [info]: using SAR=1/1
x264 [info]: using cpu capabilities: MMX2 SSE2Fast SSSE3 FastShuffle SSE4.2
x264 [info]: profile Main, level 3.0

x264 [info]: frame I:2436  Avg QP:16.76  size: 19236
x264 [info]: frame P:59034 Avg QP:20.15  size:  5693
x264 [info]: frame B:91715 Avg QP:22.18  size:  1746
x264 [info]: consecutive B-frames:  5.0% 30.6% 44.6% 19.8%
x264 [info]: mb I  I16..4: 22.9%  0.0% 77.1%
x264 [info]: mb P  I16..4:  1.6%  0.0%  7.9%  P16..4: 37.9% 24.7% 20.3%  3.3%  1.2%    skip: 3.2%
x264 [info]: mb B  I16..4:  0.1%  0.0%  1.3%  B16..8: 36.8% 13.8%  5.2%  direct: 6.8%  skip:36.0%  L0:37.3% L1:41.6% BI:21.1%
x264 [info]: direct mvs  spatial:96.6% temporal:3.4%
x264 [info]: coded y,uvDC,uvAC intra: 96.2% 91.1% 73.4% inter: 34.2% 29.8% 15.4%
x264 [info]: i16 v,h,dc,p: 10%  9% 37% 43%
x264 [info]: i4 v,h,dc,ddl,ddr,vr,hd,vl,hu: 11%  7%  3%  9% 14% 15% 13% 13% 15%
x264 [info]: i8c dc,h,v,p: 44% 20% 20% 16%
x264 [info]: Weighted P-Frames: Y:17.5% UV:5.4%
x264 [info]: ref P L0: 59.8% 16.8% 15.4%  7.1%  0.9%
x264 [info]: ref B L0: 80.0% 20.0%
x264 [info]: kb/s:679.97

x264 [total]: encoded 153185 frames, 20.15 fps, 679.97 kb/s
x264 [info]: final ratefactor: 18.50


Трекер:  [ 13-Дек-2012 22:44 ]

  

Скачать .torrent

Размер .torrent файла 13 KB


Размер: 1.29 GB
Хэш (hash) релиза: 6a88761bca745e1076e817e0ea751a2fa6fa1988
Подписка на обновления:

Еще никто не оставлял запись к записи скачать торрент Доспехи бога 2: Операция Кондор Armour of God 2: Operation Condor . Будь первым!

!Обратная связь