Скачать через торрент музыку Jansen Barbieri - Worlds in a Small Room - 1986, APE бесплатно без регистрации torrent

Если у вас наблюдаются проблемы со скриншотами, переходом по ссылками, скачиванием торрентов - проблемы в блокировщике рекламы AdBlock. #хорошегоДня!


Статистика раздачи
Размер:  115 MB   |    Зарегистрирован:  4 года 8 месяцев   |    .torrent скачан:  18 раз   |   
Раздают:  1  
   
Загрузка...
 
Автор Сообщение

Galfimbul

avatar Galfimbul



Jansen Barbieri - Worlds in a Small Room
Год выпуска диска : 1986
Производитель диска : UK
Аудио кодек : APE
Тип рипа : image+.cue (Test & Copy)
Битрейт аудио : lossless
Продолжительность : 34:20
Лейбл : Pan East Records
Код : NEWCD 105
Источник (релизер): Рип оригинального диска из личной коллекции
Сканы: прилагаются

01. Breaking The Silence
02. Toys
03. Blue Lines
04. Mission
05. The Way the Light Falls
06. Balance
07. Moving Circles
08. Distant Fire


Exact Audio Copy V0.99 prebeta 5 from 4. May 2009

EAC extraction logfile from 9. December 2012, 18:15

Jansen Barbieri / Worlds in a small room

Used drive : TSSTcorpCDDVDW SH-S223C Adapter: 1 ID: 0

Read mode : SecureUtilize accurate stream : YesDefeat audio cache : YesMake use of C2 pointers : No

Read offset correction : 697Overread into Lead-In and Lead-Out : NoFill up missing offset samples with silence : YesDelete leading and trailing silent blocks : NoNull samples used in CRC calculations : YesUsed interface : Native Win32 interface for Win NT & 2000

Used output format : Internal WAV RoutinesSample format : 44.100 Hz; 16 Bit; Stereo

TOC of the extracted CD

Track | Start | Length | Start sector | End sector --------------------------------------------------------- 1 | 0:00.33 | 3:40.60 | 33 | 16592 2 | 3:41.18 | 2:42.55 | 16593 | 28797 3 | 6:23.73 | 4:14.30 | 28798 | 47877 4 | 10:38.28 | 4:52.62 | 47878 | 69839 5 | 15:31.15 | 5:11.15 | 69840 | 93179 6 | 20:42.30 | 3:46.20 | 93180 | 110149 7 | 24:28.50 | 4:29.60 | 110150 | 130384 8 | 28:58.35 | 5:22.20 | 130385 | 154554

Range status and errors

Selected range

Filename C:\Documents and Settings\Gianpietro\Desktop\ZARATOZOM\Jansen-Barbieri (1986) Worlds In A Small Room\Jansen Barbieri - Worlds in a small room.wav

Peak level 95.4 % Range quality 100.0 % Test CRC 1F527CA3 Copy CRC 1F527CA3 Copy OK

No errors occurred

AccurateRip summary

Track 1 accurately ripped (confidence 1) [5D681B9E]Track 2 accurately ripped (confidence 1) [02C41B5A]Track 3 accurately ripped (confidence 1) [075159FC]Track 4 accurately ripped (confidence 1) [FC614832]Track 5 accurately ripped (confidence 1) [599FCD32]Track 6 accurately ripped (confidence 1) [6A7FD8F2]Track 7 accurately ripped (confidence 1) [D20D58D0]Track 8 accurately ripped (confidence 1) [F197376F]

All tracks accurately ripped

End of status report


Трекер:  [ 14-Дек-2012 11:11 ]

  

Скачать .torrent

Размер .torrent файла 19 KB


Размер: 115 MB
Хэш (hash) релиза: 7f8bfd63d9036cea681087615c84c32975b3f818

Еще никто не оставлял запись к записи скачать торрент Jansen Barbieri - Worlds in a Small Room - 1986, APE . Будь первым!

!Обратная связь