Скачать через торрент музыку The Meteors - Doing The Lords Work - 2012, FLAC бесплатно без регистрации torrent

Если у вас наблюдаются проблемы со скриншотами, переходом по ссылками, скачиванием торрентов - проблемы в блокировщике рекламы AdBlock. #хорошегоДня!


Статистика раздачи
Размер:  344 MB   |    Зарегистрирован:  4 года 8 месяцев   |    .torrent скачан:  23 раза   |   
Раздают:  1  
   
Загрузка...
 
Автор Сообщение

Galfimbul

avatar Galfimbul


The Meteors / Doing The Lord's Work

Жанр: Psychobilly
Страна-производитель диска: Germany
Год издания: 2012
Издатель (лейбл): People Like You Records
Страна: England
Аудиокодек: FLAC (*.flac)
Тип рипа: tracks
Битрейт аудио: lossless
Продолжительность: 1:02:23
Источник (релизер): Barkasnik
Наличие сканов в содержимом раздачи: да
Треклист:
01. My Psychobilly Syndrome (WWWC Bloody Pit Of Horror Mix)
02. It's A Long Way Down
03. My Life For Thee
04. She Screams Out My Name
05. The Man In The Cunt Skin Mask
06. The Last Temptation (Was You)
07. Paranoid
08. Strange Times (Are Coming)
09. The Shredder
10. Girl Meat Fever
11. Drag You Down To Hell
12. Ain't No Turning Back
13. Don't Blame Me
14. The Day The Earth Dripp'd Blood
15. Hell Must Be Empty (All the Demons Are Here)
16. Fuck Your World
+ hidden track: No Surrender
Exact Audio Copy V1.0 beta 3 from 29. August 2011

Отчёт EAC об извлечении, выполненном 18. ноября 2012, 21:20

The Meteors / Doing The Lords Work

Дисковод: Optiarc DVD RW AD-7203A Adapter: 0 ID: 0

Режим чтения : ДостоверностьИспользование точного потока : ДаОтключение кэша аудио : ДаИспользование указателей C2 : Нет

Коррекция смещения при чтении : 0Способность читать области Lead-in и Lead-out : НетЗаполнение пропущенных сэмплов тишиной : ДаУдаление блоков с тишиной в начале и конце : НетПри вычислениях CRC использовались нулевые сэмплы : ДаИнтерфейс : Установленный внешний ASPI-интерфейсОбработка зазоров : Не обнаружено, добавлено к предыдущему треку

Выходной формат : Пользовательский кодировщикВыбранный битрейт : 1024 kBit/sКачество : ВысокийДобавление ID3-тега : НетУтилита сжатия : C:\Program Files\Exact Audio Copy\Flac\flac.exeДополнительные параметры : -V -8 -T "Date=%year%" -T "Genre=%genre%" %source%

TOC извлечённого CD

Трек | Старт | Длительность | Начальный сектор | Конечный сектор --------------------------------------------------------------------- 1 | 0:00.00 | 3:28.16 | 0 | 15615 2 | 3:28.16 | 4:01.08 | 15616 | 33698 3 | 7:29.24 | 3:56.48 | 33699 | 51446 4 | 11:25.72 | 3:00.31 | 51447 | 64977 5 | 14:26.28 | 4:05.53 | 64978 | 83405 6 | 18:32.06 | 3:56.34 | 83406 | 101139 7 | 22:28.40 | 3:19.42 | 101140 | 116106 8 | 25:48.07 | 3:36.00 | 116107 | 132306 9 | 29:24.07 | 3:47.43 | 132307 | 149374 10 | 33:11.50 | 2:53.49 | 149375 | 162398 11 | 36:05.24 | 2:39.12 | 162399 | 174335 12 | 38:44.36 | 2:25.13 | 174336 | 185223 13 | 41:09.49 | 4:24.00 | 185224 | 205023 14 | 45:33.49 | 4:41.74 | 205024 | 226172 15 | 50:15.48 | 3:28.69 | 226173 | 241841 16 | 53:44.42 | 8:45.69 | 241842 | 281285

Трек 1

Имя файла C:\Documents and Settings\BARKAS\Мои документы\Моя музыка\01 My Psychobilly Syndrome (WWWC Bloody Pit Of Horror Mix).wav

Пиковый уровень 100.0 % Скорость извлечения 2.5 X Качество трека 100.0 % CRC теста 1CA8C1DB CRC копии 1CA8C1DB Копирование... OK

Трек 2

Имя файла C:\Documents and Settings\BARKAS\Мои документы\Моя музыка\02 It`s A Long Way Down.wav

Пиковый уровень 100.0 % Скорость извлечения 2.7 X Качество трека 100.0 % CRC теста E5C6D4F8 CRC копии E5C6D4F8 Копирование... OK

Трек 3

Имя файла C:\Documents and Settings\BARKAS\Мои документы\Моя музыка\03 My Life For Thee.wav

Пиковый уровень 100.0 % Скорость извлечения 2.9 X Качество трека 100.0 % CRC теста 9000FADE CRC копии 9000FADE Копирование... OK

Трек 4

Имя файла C:\Documents and Settings\BARKAS\Мои документы\Моя музыка\04 She Screams Out My Name.wav

Пиковый уровень 100.0 % Скорость извлечения 3.0 X Качество трека 100.0 % CRC теста 6EF57369 CRC копии 6EF57369 Копирование... OK

Трек 5

Имя файла C:\Documents and Settings\BARKAS\Мои документы\Моя музыка\05 The Man In The Cunt Skin Mask.wav

Пиковый уровень 100.0 % Скорость извлечения 2.9 X Качество трека 99.9 % CRC теста 4A05D9C0 CRC копии 4A05D9C0 Копирование... OK

Трек 6

Имя файла C:\Documents and Settings\BARKAS\Мои документы\Моя музыка\06 The Last Temptation (Was You).wav

Пиковый уровень 100.0 % Скорость извлечения 3.5 X Качество трека 100.0 % CRC теста 20C92AF1 CRC копии 20C92AF1 Копирование... OK

Трек 7

Имя файла C:\Documents and Settings\BARKAS\Мои документы\Моя музыка\07 Paranoid.wav

Пиковый уровень 100.0 % Скорость извлечения 3.1 X Качество трека 99.9 % CRC теста 9C242AD0 CRC копии 9C242AD0 Копирование... OK

Трек 8

Имя файла C:\Documents and Settings\BARKAS\Мои документы\Моя музыка\08 Strange Times Are Coming.wav

Пиковый уровень 100.0 % Скорость извлечения 3.7 X Качество трека 100.0 % CRC теста E295E193 CRC копии E295E193 Копирование... OK

Трек 9

Имя файла C:\Documents and Settings\BARKAS\Мои документы\Моя музыка\09 The Shredder.wav

Пиковый уровень 100.0 % Скорость извлечения 3.9 X Качество трека 100.0 % CRC теста 410074FF CRC копии 410074FF Копирование... OK

Трек 10

Имя файла C:\Documents and Settings\BARKAS\Мои документы\Моя музыка\10 Girl Meat Fever.wav

Пиковый уровень 100.0 % Скорость извлечения 3.3 X Качество трека 99.9 % CRC теста 44670F14 CRC копии 44670F14 Копирование... OK

Трек 11

Имя файла C:\Documents and Settings\BARKAS\Мои документы\Моя музыка\11 Drag You Down To Hell.wav

Пиковый уровень 100.0 % Скорость извлечения 4.0 X Качество трека 100.0 % CRC теста B0B756BC CRC копии B0B756BC Копирование... OK

Трек 12

Имя файла C:\Documents and Settings\BARKAS\Мои документы\Моя музыка\12 Ain`t No Turning Back.wav

Пиковый уровень 100.0 % Скорость извлечения 4.0 X Качество трека 100.0 % CRC теста 346CA9E8 CRC копии 346CA9E8 Копирование... OK

Трек 13

Имя файла C:\Documents and Settings\BARKAS\Мои документы\Моя музыка\13 Don`t Blame Me.wav

Пиковый уровень 100.0 % Скорость извлечения 4.5 X Качество трека 100.0 % CRC теста 69EB92DF CRC копии 69EB92DF Копирование... OK

Трек 14

Имя файла C:\Documents and Settings\BARKAS\Мои документы\Моя музыка\14 The Day The Earth Dripp`d Blood.wav

Пиковый уровень 100.0 % Скорость извлечения 4.7 X Качество трека 100.0 % CRC теста 879513F8 CRC копии 879513F8 Копирование... OK

Трек 15

Имя файла C:\Documents and Settings\BARKAS\Мои документы\Моя музыка\15 Hell Must Be Empty (All The Demons Are Here).wav

Пиковый уровень 100.0 % Скорость извлечения 4.6 X Качество трека 100.0 % CRC теста C3A3AF1A CRC копии C3A3AF1A Копирование... OK

Трек 16

Имя файла C:\Documents and Settings\BARKAS\Мои документы\Моя музыка\16 Fuck Your World.wav

Пиковый уровень 100.0 % Скорость извлечения 5.3 X Качество трека 100.0 % CRC теста E1D3E290 CRC копии E1D3E290 Копирование... OK

Ошибок не произошло

Конец отчёта

------------------------------------------------------------

Exact Audio Copy V1.0 beta 3 from 29. August 2011

Отчёт EAC об извлечении, выполненном 18. ноября 2012, 21:20

The Meteors / Doing The Lords Work

Дисковод: Optiarc DVD RW AD-7203A Adapter: 0 ID: 0

Режим чтения : ДостоверностьИспользование точного потока : ДаОтключение кэша аудио : ДаИспользование указателей C2 : Нет

Коррекция смещения при чтении : 0Способность читать области Lead-in и Lead-out : НетЗаполнение пропущенных сэмплов тишиной : ДаУдаление блоков с тишиной в начале и конце : НетПри вычислениях CRC использовались нулевые сэмплы : ДаИнтерфейс : Установленный внешний ASPI-интерфейсОбработка зазоров : Не обнаружено, добавлено к предыдущему треку

Выходной формат : Пользовательский кодировщикВыбранный битрейт : 1024 kBit/sКачество : ВысокийДобавление ID3-тега : НетУтилита сжатия : C:\Program Files\Exact Audio Copy\Flac\flac.exeДополнительные параметры : -V -8 -T "Date=%year%" -T "Genre=%genre%" %source%

TOC извлечённого CD

Трек | Старт | Длительность | Начальный сектор | Конечный сектор --------------------------------------------------------------------- 1 | 0:00.00 | 3:28.16 | 0 | 15615 2 | 3:28.16 | 4:01.08 | 15616 | 33698 3 | 7:29.24 | 3:56.48 | 33699 | 51446 4 | 11:25.72 | 3:00.31 | 51447 | 64977 5 | 14:26.28 | 4:05.53 | 64978 | 83405 6 | 18:32.06 | 3:56.34 | 83406 | 101139 7 | 22:28.40 | 3:19.42 | 101140 | 116106 8 | 25:48.07 | 3:36.00 | 116107 | 132306 9 | 29:24.07 | 3:47.43 | 132307 | 149374 10 | 33:11.50 | 2:53.49 | 149375 | 162398 11 | 36:05.24 | 2:39.12 | 162399 | 174335 12 | 38:44.36 | 2:25.13 | 174336 | 185223 13 | 41:09.49 | 4:24.00 | 185224 | 205023 14 | 45:33.49 | 4:41.74 | 205024 | 226172 15 | 50:15.48 | 3:28.69 | 226173 | 241841 16 | 53:44.42 | 8:45.69 | 241842 | 281285

Трек 1

Имя файла C:\Documents and Settings\BARKAS\Мои документы\Моя музыка\01 My Psychobilly Syndrome (WWWC Bloody Pit Of Horror Mix).wav

Пиковый уровень 100.0 % Скорость извлечения 2.5 X Качество трека 100.0 % CRC теста 1CA8C1DB CRC копии 1CA8C1DB Копирование... OK

Трек 2

Имя файла C:\Documents and Settings\BARKAS\Мои документы\Моя музыка\02 It`s A Long Way Down.wav

Пиковый уровень 100.0 % Скорость извлечения 2.7 X Качество трека 100.0 % CRC теста E5C6D4F8 CRC копии E5C6D4F8 Копирование... OK

Трек 3

Имя файла C:\Documents and Settings\BARKAS\Мои документы\Моя музыка\03 My Life For Thee.wav

Пиковый уровень 100.0 % Скорость извлечения 2.9 X Качество трека 100.0 % CRC теста 9000FADE CRC копии 9000FADE Копирование... OK

Трек 4

Имя файла C:\Documents and Settings\BARKAS\Мои документы\Моя музыка\04 She Screams Out My Name.wav

Пиковый уровень 100.0 % Скорость извлечения 3.0 X Качество трека 100.0 % CRC теста 6EF57369 CRC копии 6EF57369 Копирование... OK

Трек 5

Имя файла C:\Documents and Settings\BARKAS\Мои документы\Моя музыка\05 The Man In The Cunt Skin Mask.wav

Пиковый уровень 100.0 % Скорость извлечения 2.9 X Качество трека 99.9 % CRC теста 4A05D9C0 CRC копии 4A05D9C0 Копирование... OK

Трек 6

Имя файла C:\Documents and Settings\BARKAS\Мои документы\Моя музыка\06 The Last Temptation (Was You).wav

Пиковый уровень 100.0 % Скорость извлечения 3.5 X Качество трека 100.0 % CRC теста 20C92AF1 CRC копии 20C92AF1 Копирование... OK

Трек 7

Имя файла C:\Documents and Settings\BARKAS\Мои документы\Моя музыка\07 Paranoid.wav

Пиковый уровень 100.0 % Скорость извлечения 3.1 X Качество трека 99.9 % CRC теста 9C242AD0 CRC копии 9C242AD0 Копирование... OK

Трек 8

Имя файла C:\Documents and Settings\BARKAS\Мои документы\Моя музыка\08 Strange Times Are Coming.wav

Пиковый уровень 100.0 % Скорость извлечения 3.7 X Качество трека 100.0 % CRC теста E295E193 CRC копии E295E193 Копирование... OK

Трек 9

Имя файла C:\Documents and Settings\BARKAS\Мои документы\Моя музыка\09 The Shredder.wav

Пиковый уровень 100.0 % Скорость извлечения 3.9 X Качество трека 100.0 % CRC теста 410074FF CRC копии 410074FF Копирование... OK

Трек 10

Имя файла C:\Documents and Settings\BARKAS\Мои документы\Моя музыка\10 Girl Meat Fever.wav

Пиковый уровень 100.0 % Скорость извлечения 3.3 X Качество трека 99.9 % CRC теста 44670F14 CRC копии 44670F14 Копирование... OK

Трек 11

Имя файла C:\Documents and Settings\BARKAS\Мои документы\Моя музыка\11 Drag You Down To Hell.wav

Пиковый уровень 100.0 % Скорость извлечения 4.0 X Качество трека 100.0 % CRC теста B0B756BC CRC копии B0B756BC Копирование... OK

Трек 12

Имя файла C:\Documents and Settings\BARKAS\Мои документы\Моя музыка\12 Ain`t No Turning Back.wav

Пиковый уровень 100.0 % Скорость извлечения 4.0 X Качество трека 100.0 % CRC теста 346CA9E8 CRC копии 346CA9E8 Копирование... OK

Трек 13

Имя файла C:\Documents and Settings\BARKAS\Мои документы\Моя музыка\13 Don`t Blame Me.wav

Пиковый уровень 100.0 % Скорость извлечения 4.5 X Качество трека 100.0 % CRC теста 69EB92DF CRC копии 69EB92DF Копирование... OK

Трек 14

Имя файла C:\Documents and Settings\BARKAS\Мои документы\Моя музыка\14 The Day The Earth Dripp`d Blood.wav

Пиковый уровень 100.0 % Скорость извлечения 4.7 X Качество трека 100.0 % CRC теста 879513F8 CRC копии 879513F8 Копирование... OK

Трек 15

Имя файла C:\Documents and Settings\BARKAS\Мои документы\Моя музыка\15 Hell Must Be Empty (All The Demons Are Here).wav

Пиковый уровень 100.0 % Скорость извлечения 4.6 X Качество трека 100.0 % CRC теста C3A3AF1A CRC копии C3A3AF1A Копирование... OK

Трек 16

Имя файла C:\Documents and Settings\BARKAS\Мои документы\Моя музыка\16 Fuck Your World.wav

Пиковый уровень 100.0 % Скорость извлечения 5.3 X Качество трека 100.0 % CRC теста E1D3E290 CRC копии E1D3E290 Копирование... OK

Ошибок не произошло

Конец отчёта

------------------------------------------------------------

Exact Audio Copy V1.0 beta 3 from 29. August 2011

Отчёт EAC об извлечении, выполненном 18. ноября 2012, 21:20

The Meteors / Doing The Lords Work

Дисковод: Optiarc DVD RW AD-7203A Adapter: 0 ID: 0

Режим чтения : ДостоверностьИспользование точного потока : ДаОтключение кэша аудио : ДаИспользование указателей C2 : Нет

Коррекция смещения при чтении : 0Способность читать области Lead-in и Lead-out : НетЗаполнение пропущенных сэмплов тишиной : ДаУдаление блоков с тишиной в начале и конце : НетПри вычислениях CRC использовались нулевые сэмплы : ДаИнтерфейс : Установленный внешний ASPI-интерфейсОбработка зазоров : Не обнаружено, добавлено к предыдущему треку

Выходной формат : Пользовательский кодировщикВыбранный битрейт : 1024 kBit/sКачество : ВысокийДобавление ID3-тега : НетУтилита сжатия : C:\Program Files\Exact Audio Copy\Flac\flac.exeДополнительные параметры : -V -8 -T "Date=%year%" -T "Genre=%genre%" %source%

TOC извлечённого CD

Трек | Старт | Длительность | Начальный сектор | Конечный сектор --------------------------------------------------------------------- 1 | 0:00.00 | 3:28.16 | 0 | 15615 2 | 3:28.16 | 4:01.08 | 15616 | 33698 3 | 7:29.24 | 3:56.48 | 33699 | 51446 4 | 11:25.72 | 3:00.31 | 51447 | 64977 5 | 14:26.28 | 4:05.53 | 64978 | 83405 6 | 18:32.06 | 3:56.34 | 83406 | 101139 7 | 22:28.40 | 3:19.42 | 101140 | 116106 8 | 25:48.07 | 3:36.00 | 116107 | 132306 9 | 29:24.07 | 3:47.43 | 132307 | 149374 10 | 33:11.50 | 2:53.49 | 149375 | 162398 11 | 36:05.24 | 2:39.12 | 162399 | 174335 12 | 38:44.36 | 2:25.13 | 174336 | 185223 13 | 41:09.49 | 4:24.00 | 185224 | 205023 14 | 45:33.49 | 4:41.74 | 205024 | 226172 15 | 50:15.48 | 3:28.69 | 226173 | 241841 16 | 53:44.42 | 8:45.69 | 241842 | 281285

Трек 1

Имя файла C:\Documents and Settings\BARKAS\Мои документы\Моя музыка\01 My Psychobilly Syndrome (WWWC Bloody Pit Of Horror Mix).wav

Пиковый уровень 100.0 % Скорость извлечения 2.5 X Качество трека 100.0 % CRC теста 1CA8C1DB CRC копии 1CA8C1DB Копирование... OK

Трек 2

Имя файла C:\Documents and Settings\BARKAS\Мои документы\Моя музыка\02 It`s A Long Way Down.wav

Пиковый уровень 100.0 % Скорость извлечения 2.7 X Качество трека 100.0 % CRC теста E5C6D4F8 CRC копии E5C6D4F8 Копирование... OK

Трек 3

Имя файла C:\Documents and Settings\BARKAS\Мои документы\Моя музыка\03 My Life For Thee.wav

Пиковый уровень 100.0 % Скорость извлечения 2.9 X Качество трека 100.0 % CRC теста 9000FADE CRC копии 9000FADE Копирование... OK

Трек 4

Имя файла C:\Documents and Settings\BARKAS\Мои документы\Моя музыка\04 She Screams Out My Name.wav

Пиковый уровень 100.0 % Скорость извлечения 3.0 X Качество трека 100.0 % CRC теста 6EF57369 CRC копии 6EF57369 Копирование... OK

Трек 5

Имя файла C:\Documents and Settings\BARKAS\Мои документы\Моя музыка\05 The Man In The Cunt Skin Mask.wav

Пиковый уровень 100.0 % Скорость извлечения 2.9 X Качество трека 99.9 % CRC теста 4A05D9C0 CRC копии 4A05D9C0 Копирование... OK

Трек 6

Имя файла C:\Documents and Settings\BARKAS\Мои документы\Моя музыка\06 The Last Temptation (Was You).wav

Пиковый уровень 100.0 % Скорость извлечения 3.5 X Качество трека 100.0 % CRC теста 20C92AF1 CRC копии 20C92AF1 Копирование... OK

Трек 7

Имя файла C:\Documents and Settings\BARKAS\Мои документы\Моя музыка\07 Paranoid.wav

Пиковый уровень 100.0 % Скорость извлечения 3.1 X Качество трека 99.9 % CRC теста 9C242AD0 CRC копии 9C242AD0 Копирование... OK

Трек 8

Имя файла C:\Documents and Settings\BARKAS\Мои документы\Моя музыка\08 Strange Times Are Coming.wav

Пиковый уровень 100.0 % Скорость извлечения 3.7 X Качество трека 100.0 % CRC теста E295E193 CRC копии E295E193 Копирование... OK

Трек 9

Имя файла C:\Documents and Settings\BARKAS\Мои документы\Моя музыка\09 The Shredder.wav

Пиковый уровень 100.0 % Скорость извлечения 3.9 X Качество трека 100.0 % CRC теста 410074FF CRC копии 410074FF Копирование... OK

Трек 10

Имя файла C:\Documents and Settings\BARKAS\Мои документы\Моя музыка\10 Girl Meat Fever.wav

Пиковый уровень 100.0 % Скорость извлечения 3.3 X Качество трека 99.9 % CRC теста 44670F14 CRC копии 44670F14 Копирование... OK

Трек 11

Имя файла C:\Documents and Settings\BARKAS\Мои документы\Моя музыка\11 Drag You Down To Hell.wav

Пиковый уровень 100.0 % Скорость извлечения 4.0 X Качество трека 100.0 % CRC теста B0B756BC CRC копии B0B756BC Копирование... OK

Трек 12

Имя файла C:\Documents and Settings\BARKAS\Мои документы\Моя музыка\12 Ain`t No Turning Back.wav

Пиковый уровень 100.0 % Скорость извлечения 4.0 X Качество трека 100.0 % CRC теста 346CA9E8 CRC копии 346CA9E8 Копирование... OK

Трек 13

Имя файла C:\Documents and Settings\BARKAS\Мои документы\Моя музыка\13 Don`t Blame Me.wav

Пиковый уровень 100.0 % Скорость извлечения 4.5 X Качество трека 100.0 % CRC теста 69EB92DF CRC копии 69EB92DF Копирование... OK

Трек 14

Имя файла C:\Documents and Settings\BARKAS\Мои документы\Моя музыка\14 The Day The Earth Dripp`d Blood.wav

Пиковый уровень 100.0 % Скорость извлечения 4.7 X Качество трека 100.0 % CRC теста 879513F8 CRC копии 879513F8 Копирование... OK

Трек 15

Имя файла C:\Documents and Settings\BARKAS\Мои документы\Моя музыка\15 Hell Must Be Empty (All The Demons Are Here).wav

Пиковый уровень 100.0 % Скорость извлечения 4.6 X Качество трека 100.0 % CRC теста C3A3AF1A CRC копии C3A3AF1A Копирование... OK

Трек 16

Имя файла C:\Documents and Settings\BARKAS\Мои документы\Моя музыка\16 Fuck Your World.wav

Пиковый уровень 100.0 % Скорость извлечения 5.3 X Качество трека 100.0 % CRC теста E1D3E290 CRC копии E1D3E290 Копирование... OK

Ошибок не произошло

Конец отчёта

------------------------------------------------------------

Exact Audio Copy V1.0 beta 3 from 29. August 2011

Отчёт EAC об извлечении, выполненном 18. ноября 2012, 21:20

The Meteors / Doing The Lords Work

Дисковод: Optiarc DVD RW AD-7203A Adapter: 0 ID: 0

Режим чтения : ДостоверностьИспользование точного потока : ДаОтключение кэша аудио : ДаИспользование указателей C2 : Нет

Коррекция смещения при чтении : 0Способность читать области Lead-in и Lead-out : НетЗаполнение пропущенных сэмплов тишиной : ДаУдаление блоков с тишиной в начале и конце : НетПри вычислениях CRC использовались нулевые сэмплы : ДаИнтерфейс : Установленный внешний ASPI-интерфейсОбработка зазоров : Не обнаружено, добавлено к предыдущему треку

Выходной формат : Пользовательский кодировщикВыбранный битрейт : 1024 kBit/sКачество : ВысокийДобавление ID3-тега : НетУтилита сжатия : C:\Program Files\Exact Audio Copy\Flac\flac.exeДополнительные параметры : -V -8 -T "Date=%year%" -T "Genre=%genre%" %source%

TOC извлечённого CD

Трек | Старт | Длительность | Начальный сектор | Конечный сектор --------------------------------------------------------------------- 1 | 0:00.00 | 3:28.16 | 0 | 15615 2 | 3:28.16 | 4:01.08 | 15616 | 33698 3 | 7:29.24 | 3:56.48 | 33699 | 51446 4 | 11:25.72 | 3:00.31 | 51447 | 64977 5 | 14:26.28 | 4:05.53 | 64978 | 83405 6 | 18:32.06 | 3:56.34 | 83406 | 101139 7 | 22:28.40 | 3:19.42 | 101140 | 116106 8 | 25:48.07 | 3:36.00 | 116107 | 132306 9 | 29:24.07 | 3:47.43 | 132307 | 149374 10 | 33:11.50 | 2:53.49 | 149375 | 162398 11 | 36:05.24 | 2:39.12 | 162399 | 174335 12 | 38:44.36 | 2:25.13 | 174336 | 185223 13 | 41:09.49 | 4:24.00 | 185224 | 205023 14 | 45:33.49 | 4:41.74 | 205024 | 226172 15 | 50:15.48 | 3:28.69 | 226173 | 241841 16 | 53:44.42 | 8:45.69 | 241842 | 281285

Трек 1

Имя файла C:\Documents and Settings\BARKAS\Мои документы\Моя музыка\01 My Psychobilly Syndrome (WWWC Bloody Pit Of Horror Mix).wav

Пиковый уровень 100.0 % Скорость извлечения 2.5 X Качество трека 100.0 % CRC теста 1CA8C1DB CRC копии 1CA8C1DB Копирование... OK

Трек 2

Имя файла C:\Documents and Settings\BARKAS\Мои документы\Моя музыка\02 It`s A Long Way Down.wav

Пиковый уровень 100.0 % Скорость извлечения 2.7 X Качество трека 100.0 % CRC теста E5C6D4F8 CRC копии E5C6D4F8 Копирование... OK

Трек 3

Имя файла C:\Documents and Settings\BARKAS\Мои документы\Моя музыка\03 My Life For Thee.wav

Пиковый уровень 100.0 % Скорость извлечения 2.9 X Качество трека 100.0 % CRC теста 9000FADE CRC копии 9000FADE Копирование... OK

Трек 4

Имя файла C:\Documents and Settings\BARKAS\Мои документы\Моя музыка\04 She Screams Out My Name.wav

Пиковый уровень 100.0 % Скорость извлечения 3.0 X Качество трека 100.0 % CRC теста 6EF57369 CRC копии 6EF57369 Копирование... OK

Трек 5

Имя файла C:\Documents and Settings\BARKAS\Мои документы\Моя музыка\05 The Man In The Cunt Skin Mask.wav

Пиковый уровень 100.0 % Скорость извлечения 2.9 X Качество трека 99.9 % CRC теста 4A05D9C0 CRC копии 4A05D9C0 Копирование... OK

Трек 6

Имя файла C:\Documents and Settings\BARKAS\Мои документы\Моя музыка\06 The Last Temptation (Was You).wav

Пиковый уровень 100.0 % Скорость извлечения 3.5 X Качество трека 100.0 % CRC теста 20C92AF1 CRC копии 20C92AF1 Копирование... OK

Трек 7

Имя файла C:\Documents and Settings\BARKAS\Мои документы\Моя музыка\07 Paranoid.wav

Пиковый уровень 100.0 % Скорость извлечения 3.1 X Качество трека 99.9 % CRC теста 9C242AD0 CRC копии 9C242AD0 Копирование... OK

Трек 8

Имя файла C:\Documents and Settings\BARKAS\Мои документы\Моя музыка\08 Strange Times Are Coming.wav

Пиковый уровень 100.0 % Скорость извлечения 3.7 X Качество трека 100.0 % CRC теста E295E193 CRC копии E295E193 Копирование... OK

Трек 9

Имя файла C:\Documents and Settings\BARKAS\Мои документы\Моя музыка\09 The Shredder.wav

Пиковый уровень 100.0 % Скорость извлечения 3.9 X Качество трека 100.0 % CRC теста 410074FF CRC копии 410074FF Копирование... OK

Трек 10

Имя файла C:\Documents and Settings\BARKAS\Мои документы\Моя музыка\10 Girl Meat Fever.wav

Пиковый уровень 100.0 % Скорость извлечения 3.3 X Качество трека 99.9 % CRC теста 44670F14 CRC копии 44670F14 Копирование... OK

Трек 11

Имя файла C:\Documents and Settings\BARKAS\Мои документы\Моя музыка\11 Drag You Down To Hell.wav

Пиковый уровень 100.0 % Скорость извлечения 4.0 X Качество трека 100.0 % CRC теста B0B756BC CRC копии B0B756BC Копирование... OK

Трек 12

Имя файла C:\Documents and Settings\BARKAS\Мои документы\Моя музыка\12 Ain`t No Turning Back.wav

Пиковый уровень 100.0 % Скорость извлечения 4.0 X Качество трека 100.0 % CRC теста 346CA9E8 CRC копии 346CA9E8 Копирование... OK

Трек 13

Имя файла C:\Documents and Settings\BARKAS\Мои документы\Моя музыка\13 Don`t Blame Me.wav

Пиковый уровень 100.0 % Скорость извлечения 4.5 X Качество трека 100.0 % CRC теста 69EB92DF CRC копии 69EB92DF Копирование... OK

Трек 14

Имя файла C:\Documents and Settings\BARKAS\Мои документы\Моя музыка\14 The Day The Earth Dripp`d Blood.wav

Пиковый уровень 100.0 % Скорость извлечения 4.7 X Качество трека 100.0 % CRC теста 879513F8 CRC копии 879513F8 Копирование... OK

Трек 15

Имя файла C:\Documents and Settings\BARKAS\Мои документы\Моя музыка\15 Hell Must Be Empty (All The Demons Are Here).wav

Пиковый уровень 100.0 % Скорость извлечения 4.6 X Качество трека 100.0 % CRC теста C3A3AF1A CRC копии C3A3AF1A Копирование... OK

Трек 16

Имя файла C:\Documents and Settings\BARKAS\Мои документы\Моя музыка\16 Fuck Your World.wav

Пиковый уровень 100.0 % Скорость извлечения 5.3 X Качество трека 100.0 % CRC теста E1D3E290 CRC копии E1D3E290 Копирование... OK

Ошибок не произошло

Конец отчёта

------------------------------------------------------------

Exact Audio Copy V1.0 beta 3 from 29. August 2011

Отчёт EAC об извлечении, выполненном 18. ноября 2012, 21:20

The Meteors / Doing The Lords Work

Дисковод: Optiarc DVD RW AD-7203A Adapter: 0 ID: 0

Режим чтения : ДостоверностьИспользование точного потока : ДаОтключение кэша аудио : ДаИспользование указателей C2 : Нет

Коррекция смещения при чтении : 0Способность читать области Lead-in и Lead-out : НетЗаполнение пропущенных сэмплов тишиной : ДаУдаление блоков с тишиной в начале и конце : НетПри вычислениях CRC использовались нулевые сэмплы : ДаИнтерфейс : Установленный внешний ASPI-интерфейсОбработка зазоров : Не обнаружено, добавлено к предыдущему треку

Выходной формат : Пользовательский кодировщикВыбранный битрейт : 1024 kBit/sКачество : ВысокийДобавление ID3-тега : НетУтилита сжатия : C:\Program Files\Exact Audio Copy\Flac\flac.exeДополнительные параметры : -V -8 -T "Date=%year%" -T "Genre=%genre%" %source%

TOC извлечённого CD

Трек | Старт | Длительность | Начальный сектор | Конечный сектор --------------------------------------------------------------------- 1 | 0:00.00 | 3:28.16 | 0 | 15615 2 | 3:28.16 | 4:01.08 | 15616 | 33698 3 | 7:29.24 | 3:56.48 | 33699 | 51446 4 | 11:25.72 | 3:00.31 | 51447 | 64977 5 | 14:26.28 | 4:05.53 | 64978 | 83405 6 | 18:32.06 | 3:56.34 | 83406 | 101139 7 | 22:28.40 | 3:19.42 | 101140 | 116106 8 | 25:48.07 | 3:36.00 | 116107 | 132306 9 | 29:24.07 | 3:47.43 | 132307 | 149374 10 | 33:11.50 | 2:53.49 | 149375 | 162398 11 | 36:05.24 | 2:39.12 | 162399 | 174335 12 | 38:44.36 | 2:25.13 | 174336 | 185223 13 | 41:09.49 | 4:24.00 | 185224 | 205023 14 | 45:33.49 | 4:41.74 | 205024 | 226172 15 | 50:15.48 | 3:28.69 | 226173 | 241841 16 | 53:44.42 | 8:45.69 | 241842 | 281285

Трек 1

Имя файла C:\Documents and Settings\BARKAS\Мои документы\Моя музыка\01 My Psychobilly Syndrome (WWWC Bloody Pit Of Horror Mix).wav

Пиковый уровень 100.0 % Скорость извлечения 2.5 X Качество трека 100.0 % CRC теста 1CA8C1DB CRC копии 1CA8C1DB Копирование... OK

Трек 2

Имя файла C:\Documents and Settings\BARKAS\Мои документы\Моя музыка\02 It`s A Long Way Down.wav

Пиковый уровень 100.0 % Скорость извлечения 2.7 X Качество трека 100.0 % CRC теста E5C6D4F8 CRC копии E5C6D4F8 Копирование... OK

Трек 3

Имя файла C:\Documents and Settings\BARKAS\Мои документы\Моя музыка\03 My Life For Thee.wav

Пиковый уровень 100.0 % Скорость извлечения 2.9 X Качество трека 100.0 % CRC теста 9000FADE CRC копии 9000FADE Копирование... OK

Трек 4

Имя файла C:\Documents and Settings\BARKAS\Мои документы\Моя музыка\04 She Screams Out My Name.wav

Пиковый уровень 100.0 % Скорость извлечения 3.0 X Качество трека 100.0 % CRC теста 6EF57369 CRC копии 6EF57369 Копирование... OK

Трек 5

Имя файла C:\Documents and Settings\BARKAS\Мои документы\Моя музыка\05 The Man In The Cunt Skin Mask.wav

Пиковый уровень 100.0 % Скорость извлечения 2.9 X Качество трека 99.9 % CRC теста 4A05D9C0 CRC копии 4A05D9C0 Копирование... OK

Трек 6

Имя файла C:\Documents and Settings\BARKAS\Мои документы\Моя музыка\06 The Last Temptation (Was You).wav

Пиковый уровень 100.0 % Скорость извлечения 3.5 X Качество трека 100.0 % CRC теста 20C92AF1 CRC копии 20C92AF1 Копирование... OK

Трек 7

Имя файла C:\Documents and Settings\BARKAS\Мои документы\Моя музыка\07 Paranoid.wav

Пиковый уровень 100.0 % Скорость извлечения 3.1 X Качество трека 99.9 % CRC теста 9C242AD0 CRC копии 9C242AD0 Копирование... OK

Трек 8

Имя файла C:\Documents and Settings\BARKAS\Мои документы\Моя музыка\08 Strange Times Are Coming.wav

Пиковый уровень 100.0 % Скорость извлечения 3.7 X Качество трека 100.0 % CRC теста E295E193 CRC копии E295E193 Копирование... OK

Трек 9

Имя файла C:\Documents and Settings\BARKAS\Мои документы\Моя музыка\09 The Shredder.wav

Пиковый уровень 100.0 % Скорость извлечения 3.9 X Качество трека 100.0 % CRC теста 410074FF CRC копии 410074FF Копирование... OK

Трек 10

Имя файла C:\Documents and Settings\BARKAS\Мои документы\Моя музыка\10 Girl Meat Fever.wav

Пиковый уровень 100.0 % Скорость извлечения 3.3 X Качество трека 99.9 % CRC теста 44670F14 CRC копии 44670F14 Копирование... OK

Трек 11

Имя файла C:\Documents and Settings\BARKAS\Мои документы\Моя музыка\11 Drag You Down To Hell.wav

Пиковый уровень 100.0 % Скорость извлечения 4.0 X Качество трека 100.0 % CRC теста B0B756BC CRC копии B0B756BC Копирование... OK

Трек 12

Имя файла C:\Documents and Settings\BARKAS\Мои документы\Моя музыка\12 Ain`t No Turning Back.wav

Пиковый уровень 100.0 % Скорость извлечения 4.0 X Качество трека 100.0 % CRC теста 346CA9E8 CRC копии 346CA9E8 Копирование... OK

Трек 13

Имя файла C:\Documents and Settings\BARKAS\Мои документы\Моя музыка\13 Don`t Blame Me.wav

Пиковый уровень 100.0 % Скорость извлечения 4.5 X Качество трека 100.0 % CRC теста 69EB92DF CRC копии 69EB92DF Копирование... OK

Трек 14

Имя файла C:\Documents and Settings\BARKAS\Мои документы\Моя музыка\14 The Day The Earth Dripp`d Blood.wav

Пиковый уровень 100.0 % Скорость извлечения 4.7 X Качество трека 100.0 % CRC теста 879513F8 CRC копии 879513F8 Копирование... OK

Трек 15

Имя файла C:\Documents and Settings\BARKAS\Мои документы\Моя музыка\15 Hell Must Be Empty (All The Demons Are Here).wav

Пиковый уровень 100.0 % Скорость извлечения 4.6 X Качество трека 100.0 % CRC теста C3A3AF1A CRC копии C3A3AF1A Копирование... OK

Трек 16

Имя файла C:\Documents and Settings\BARKAS\Мои документы\Моя музыка\16 Fuck Your World.wav

Пиковый уровень 100.0 % Скорость извлечения 5.3 X Качество трека 100.0 % CRC теста E1D3E290 CRC копии E1D3E290 Копирование... OK

Ошибок не произошло

Конец отчёта

------------------------------------------------------------

Exact Audio Copy V1.0 beta 3 from 29. August 2011

Отчёт EAC об извлечении, выполненном 18. ноября 2012, 21:20

The Meteors / Doing The Lords Work

Дисковод: Optiarc DVD RW AD-7203A Adapter: 0 ID: 0

Режим чтения : ДостоверностьИспользование точного потока : ДаОтключение кэша аудио : ДаИспользование указателей C2 : Нет

Коррекция смещения при чтении : 0Способность читать области Lead-in и Lead-out : НетЗаполнение пропущенных сэмплов тишиной : ДаУдаление блоков с тишиной в начале и конце : НетПри вычислениях CRC использовались нулевые сэмплы : ДаИнтерфейс : Установленный внешний ASPI-интерфейсОбработка зазоров : Не обнаружено, добавлено к предыдущему треку

Выходной формат : Пользовательский кодировщикВыбранный битрейт : 1024 kBit/sКачество : ВысокийДобавление ID3-тега : НетУтилита сжатия : C:\Program Files\Exact Audio Copy\Flac\flac.exeДополнительные параметры : -V -8 -T "Date=%year%" -T "Genre=%genre%" %source%

TOC извлечённого CD

Трек | Старт | Длительность | Начальный сектор | Конечный сектор --------------------------------------------------------------------- 1 | 0:00.00 | 3:28.16 | 0 | 15615 2 | 3:28.16 | 4:01.08 | 15616 | 33698 3 | 7:29.24 | 3:56.48 | 33699 | 51446 4 | 11:25.72 | 3:00.31 | 51447 | 64977 5 | 14:26.28 | 4:05.53 | 64978 | 83405 6 | 18:32.06 | 3:56.34 | 83406 | 101139 7 | 22:28.40 | 3:19.42 | 101140 | 116106 8 | 25:48.07 | 3:36.00 | 116107 | 132306 9 | 29:24.07 | 3:47.43 | 132307 | 149374 10 | 33:11.50 | 2:53.49 | 149375 | 162398 11 | 36:05.24 | 2:39.12 | 162399 | 174335 12 | 38:44.36 | 2:25.13 | 174336 | 185223 13 | 41:09.49 | 4:24.00 | 185224 | 205023 14 | 45:33.49 | 4:41.74 | 205024 | 226172 15 | 50:15.48 | 3:28.69 | 226173 | 241841 16 | 53:44.42 | 8:45.69 | 241842 | 281285

Трек 1

Имя файла C:\Documents and Settings\BARKAS\Мои документы\Моя музыка\01 My Psychobilly Syndrome (WWWC Bloody Pit Of Horror Mix).wav

Пиковый уровень 100.0 % Скорость извлечения 2.5 X Качество трека 100.0 % CRC теста 1CA8C1DB CRC копии 1CA8C1DB Копирование... OK

Трек 2

Имя файла C:\Documents and Settings\BARKAS\Мои документы\Моя музыка\02 It`s A Long Way Down.wav

Пиковый уровень 100.0 % Скорость извлечения 2.7 X Качество трека 100.0 % CRC теста E5C6D4F8 CRC копии E5C6D4F8 Копирование... OK

Трек 3

Имя файла C:\Documents and Settings\BARKAS\Мои документы\Моя музыка\03 My Life For Thee.wav

Пиковый уровень 100.0 % Скорость извлечения 2.9 X Качество трека 100.0 % CRC теста 9000FADE CRC копии 9000FADE Копирование... OK

Трек 4

Имя файла C:\Documents and Settings\BARKAS\Мои документы\Моя музыка\04 She Screams Out My Name.wav

Пиковый уровень 100.0 % Скорость извлечения 3.0 X Качество трека 100.0 % CRC теста 6EF57369 CRC копии 6EF57369 Копирование... OK

Трек 5

Имя файла C:\Documents and Settings\BARKAS\Мои документы\Моя музыка\05 The Man In The Cunt Skin Mask.wav

Пиковый уровень 100.0 % Скорость извлечения 2.9 X Качество трека 99.9 % CRC теста 4A05D9C0 CRC копии 4A05D9C0 Копирование... OK

Трек 6

Имя файла C:\Documents and Settings\BARKAS\Мои документы\Моя музыка\06 The Last Temptation (Was You).wav

Пиковый уровень 100.0 % Скорость извлечения 3.5 X Качество трека 100.0 % CRC теста 20C92AF1 CRC копии 20C92AF1 Копирование... OK

Трек 7

Имя файла C:\Documents and Settings\BARKAS\Мои документы\Моя музыка\07 Paranoid.wav

Пиковый уровень 100.0 % Скорость извлечения 3.1 X Качество трека 99.9 % CRC теста 9C242AD0 CRC копии 9C242AD0 Копирование... OK

Трек 8

Имя файла C:\Documents and Settings\BARKAS\Мои документы\Моя музыка\08 Strange Times Are Coming.wav

Пиковый уровень 100.0 % Скорость извлечения 3.7 X Качество трека 100.0 % CRC теста E295E193 CRC копии E295E193 Копирование... OK

Трек 9

Имя файла C:\Documents and Settings\BARKAS\Мои документы\Моя музыка\09 The Shredder.wav

Пиковый уровень 100.0 % Скорость извлечения 3.9 X Качество трека 100.0 % CRC теста 410074FF CRC копии 410074FF Копирование... OK

Трек 10

Имя файла C:\Documents and Settings\BARKAS\Мои документы\Моя музыка\10 Girl Meat Fever.wav

Пиковый уровень 100.0 % Скорость извлечения 3.3 X Качество трека 99.9 % CRC теста 44670F14 CRC копии 44670F14 Копирование... OK

Трек 11

Имя файла C:\Documents and Settings\BARKAS\Мои документы\Моя музыка\11 Drag You Down To Hell.wav

Пиковый уровень 100.0 % Скорость извлечения 4.0 X Качество трека 100.0 % CRC теста B0B756BC CRC копии B0B756BC Копирование... OK

Трек 12

Имя файла C:\Documents and Settings\BARKAS\Мои документы\Моя музыка\12 Ain`t No Turning Back.wav

Пиковый уровень 100.0 % Скорость извлечения 4.0 X Качество трека 100.0 % CRC теста 346CA9E8 CRC копии 346CA9E8 Копирование... OK

Трек 13

Имя файла C:\Documents and Settings\BARKAS\Мои документы\Моя музыка\13 Don`t Blame Me.wav

Пиковый уровень 100.0 % Скорость извлечения 4.5 X Качество трека 100.0 % CRC теста 69EB92DF CRC копии 69EB92DF Копирование... OK

Трек 14

Имя файла C:\Documents and Settings\BARKAS\Мои документы\Моя музыка\14 The Day The Earth Dripp`d Blood.wav

Пиковый уровень 100.0 % Скорость извлечения 4.7 X Качество трека 100.0 % CRC теста 879513F8 CRC копии 879513F8 Копирование... OK

Трек 15

Имя файла C:\Documents and Settings\BARKAS\Мои документы\Моя музыка\15 Hell Must Be Empty (All The Demons Are Here).wav

Пиковый уровень 100.0 % Скорость извлечения 4.6 X Качество трека 100.0 % CRC теста C3A3AF1A CRC копии C3A3AF1A Копирование... OK

Трек 16

Имя файла C:\Documents and Settings\BARKAS\Мои документы\Моя музыка\16 Fuck Your World.wav

Пиковый уровень 100.0 % Скорость извлечения 5.3 X Качество трека 100.0 % CRC теста E1D3E290 CRC копии E1D3E290 Копирование... OK

Ошибок не произошло

Конец отчёта

------------------------------------------------------------

Exact Audio Copy V1.0 beta 3 from 29. August 2011

Отчёт EAC об извлечении, выполненном 18. ноября 2012, 21:20

The Meteors / Doing The Lords Work

Дисковод: Optiarc DVD RW AD-7203A Adapter: 0 ID: 0

Режим чтения : ДостоверностьИспользование точного потока : ДаОтключение кэша аудио : ДаИспользование указателей C2 : Нет

Коррекция смещения при чтении : 0Способность читать области Lead-in и Lead-out : НетЗаполнение пропущенных сэмплов тишиной : ДаУдаление блоков с тишиной в начале и конце : НетПри вычислениях CRC использовались нулевые сэмплы : ДаИнтерфейс : Установленный внешний ASPI-интерфейсОбработка зазоров : Не обнаружено, добавлено к предыдущему треку

Выходной формат : Пользовательский кодировщикВыбранный битрейт : 1024 kBit/sКачество : ВысокийДобавление ID3-тега : НетУтилита сжатия : C:\Program Files\Exact Audio Copy\Flac\flac.exeДополнительные параметры : -V -8 -T "Date=%year%" -T "Genre=%genre%" %source%

TOC извлечённого CD

Трек | Старт | Длительность | Начальный сектор | Конечный сектор --------------------------------------------------------------------- 1 | 0:00.00 | 3:28.16 | 0 | 15615 2 | 3:28.16 | 4:01.08 | 15616 | 33698 3 | 7:29.24 | 3:56.48 | 33699 | 51446 4 | 11:25.72 | 3:00.31 | 51447 | 64977 5 | 14:26.28 | 4:05.53 | 64978 | 83405 6 | 18:32.06 | 3:56.34 | 83406 | 101139 7 | 22:28.40 | 3:19.42 | 101140 | 116106 8 | 25:48.07 | 3:36.00 | 116107 | 132306 9 | 29:24.07 | 3:47.43 | 132307 | 149374 10 | 33:11.50 | 2:53.49 | 149375 | 162398 11 | 36:05.24 | 2:39.12 | 162399 | 174335 12 | 38:44.36 | 2:25.13 | 174336 | 185223 13 | 41:09.49 | 4:24.00 | 185224 | 205023 14 | 45:33.49 | 4:41.74 | 205024 | 226172 15 | 50:15.48 | 3:28.69 | 226173 | 241841 16 | 53:44.42 | 8:45.69 | 241842 | 281285

Трек 1

Имя файла C:\Documents and Settings\BARKAS\Мои документы\Моя музыка\01 My Psychobilly Syndrome (WWWC Bloody Pit Of Horror Mix).wav

Пиковый уровень 100.0 % Скорость извлечения 2.5 X Качество трека 100.0 % CRC теста 1CA8C1DB CRC копии 1CA8C1DB Копирование... OK

Трек 2

Имя файла C:\Documents and Settings\BARKAS\Мои документы\Моя музыка\02 It`s A Long Way Down.wav

Пиковый уровень 100.0 % Скорость извлечения 2.7 X Качество трека 100.0 % CRC теста E5C6D4F8 CRC копии E5C6D4F8 Копирование... OK

Трек 3

Имя файла C:\Documents and Settings\BARKAS\Мои документы\Моя музыка\03 My Life For Thee.wav

Пиковый уровень 100.0 % Скорость извлечения 2.9 X Качество трека 100.0 % CRC теста 9000FADE CRC копии 9000FADE Копирование... OK

Трек 4

Имя файла C:\Documents and Settings\BARKAS\Мои документы\Моя музыка\04 She Screams Out My Name.wav

Пиковый уровень 100.0 % Скорость извлечения 3.0 X Качество трека 100.0 % CRC теста 6EF57369 CRC копии 6EF57369 Копирование... OK

Трек 5

Имя файла C:\Documents and Settings\BARKAS\Мои документы\Моя музыка\05 The Man In The Cunt Skin Mask.wav

Пиковый уровень 100.0 % Скорость извлечения 2.9 X Качество трека 99.9 % CRC теста 4A05D9C0 CRC копии 4A05D9C0 Копирование... OK

Трек 6

Имя файла C:\Documents and Settings\BARKAS\Мои документы\Моя музыка\06 The Last Temptation (Was You).wav

Пиковый уровень 100.0 % Скорость извлечения 3.5 X Качество трека 100.0 % CRC теста 20C92AF1 CRC копии 20C92AF1 Копирование... OK

Трек 7

Имя файла C:\Documents and Settings\BARKAS\Мои документы\Моя музыка\07 Paranoid.wav

Пиковый уровень 100.0 % Скорость извлечения 3.1 X Качество трека 99.9 % CRC теста 9C242AD0 CRC копии 9C242AD0 Копирование... OK

Трек 8

Имя файла C:\Documents and Settings\BARKAS\Мои документы\Моя музыка\08 Strange Times Are Coming.wav

Пиковый уровень 100.0 % Скорость извлечения 3.7 X Качество трека 100.0 % CRC теста E295E193 CRC копии E295E193 Копирование... OK

Трек 9

Имя файла C:\Documents and Settings\BARKAS\Мои документы\Моя музыка\09 The Shredder.wav

Пиковый уровень 100.0 % Скорость извлечения 3.9 X Качество трека 100.0 % CRC теста 410074FF CRC копии 410074FF Копирование... OK

Трек 10

Имя файла C:\Documents and Settings\BARKAS\Мои документы\Моя музыка\10 Girl Meat Fever.wav

Пиковый уровень 100.0 % Скорость извлечения 3.3 X Качество трека 99.9 % CRC теста 44670F14 CRC копии 44670F14 Копирование... OK

Трек 11

Имя файла C:\Documents and Settings\BARKAS\Мои документы\Моя музыка\11 Drag You Down To Hell.wav

Пиковый уровень 100.0 % Скорость извлечения 4.0 X Качество трека 100.0 % CRC теста B0B756BC CRC копии B0B756BC Копирование... OK

Трек 12

Имя файла C:\Documents and Settings\BARKAS\Мои документы\Моя музыка\12 Ain`t No Turning Back.wav

Пиковый уровень 100.0 % Скорость извлечения 4.0 X Качество трека 100.0 % CRC теста 346CA9E8 CRC копии 346CA9E8 Копирование... OK

Трек 13

Имя файла C:\Documents and Settings\BARKAS\Мои документы\Моя музыка\13 Don`t Blame Me.wav

Пиковый уровень 100.0 % Скорость извлечения 4.5 X Качество трека 100.0 % CRC теста 69EB92DF CRC копии 69EB92DF Копирование... OK

Трек 14

Имя файла C:\Documents and Settings\BARKAS\Мои документы\Моя музыка\14 The Day The Earth Dripp`d Blood.wav

Пиковый уровень 100.0 % Скорость извлечения 4.7 X Качество трека 100.0 % CRC теста 879513F8 CRC копии 879513F8 Копирование... OK

Трек 15

Имя файла C:\Documents and Settings\BARKAS\Мои документы\Моя музыка\15 Hell Must Be Empty (All The Demons Are Here).wav

Пиковый уровень 100.0 % Скорость извлечения 4.6 X Качество трека 100.0 % CRC теста C3A3AF1A CRC копии C3A3AF1A Копирование... OK

Трек 16

Имя файла C:\Documents and Settings\BARKAS\Мои документы\Моя музыка\16 Fuck Your World.wav

Пиковый уровень 100.0 % Скорость извлечения 5.3 X Качество трека 100.0 % CRC теста E1D3E290 CRC копии E1D3E290 Копирование... OK

Ошибок не произошло

Конец отчёта

------------------------------------------------------------

Exact Audio Copy V1.0 beta 3 from 29. August 2011

Отчёт EAC об извлечении, выполненном 18. ноября 2012, 21:20

The Meteors / Doing The Lords Work

Дисковод: Optiarc DVD RW AD-7203A Adapter: 0 ID: 0

Режим чтения : ДостоверностьИспользование точного потока : ДаОтключение кэша аудио : ДаИспользование указателей C2 : Нет

Коррекция смещения при чтении : 0Способность читать области Lead-in и Lead-out : НетЗаполнение пропущенных сэмплов тишиной : ДаУдаление блоков с тишиной в начале и конце : НетПри вычислениях CRC использовались нулевые сэмплы : ДаИнтерфейс : Установленный внешний ASPI-интерфейсОбработка зазоров : Не обнаружено, добавлено к предыдущему треку

Выходной формат : Пользовательский кодировщикВыбранный битрейт : 1024 kBit/sКачество : ВысокийДобавление ID3-тега : НетУтилита сжатия : C:\Program Files\Exact Audio Copy\Flac\flac.exeДополнительные параметры : -V -8 -T "Date=%year%" -T "Genre=%genre%" %source%

TOC извлечённого CD

Трек | Старт | Длительность | Начальный сектор | Конечный сектор --------------------------------------------------------------------- 1 | 0:00.00 | 3:28.16 | 0 | 15615 2 | 3:28.16 | 4:01.08 | 15616 | 33698 3 | 7:29.24 | 3:56.48 | 33699 | 51446 4 | 11:25.72 | 3:00.31 | 51447 | 64977 5 | 14:26.28 | 4:05.53 | 64978 | 83405 6 | 18:32.06 | 3:56.34 | 83406 | 101139 7 | 22:28.40 | 3:19.42 | 101140 | 116106 8 | 25:48.07 | 3:36.00 | 116107 | 132306 9 | 29:24.07 | 3:47.43 | 132307 | 149374 10 | 33:11.50 | 2:53.49 | 149375 | 162398 11 | 36:05.24 | 2:39.12 | 162399 | 174335 12 | 38:44.36 | 2:25.13 | 174336 | 185223 13 | 41:09.49 | 4:24.00 | 185224 | 205023 14 | 45:33.49 | 4:41.74 | 205024 | 226172 15 | 50:15.48 | 3:28.69 | 226173 | 241841 16 | 53:44.42 | 8:45.69 | 241842 | 281285

Трек 1

Имя файла C:\Documents and Settings\BARKAS\Мои документы\Моя музыка\01 My Psychobilly Syndrome (WWWC Bloody Pit Of Horror Mix).wav

Пиковый уровень 100.0 % Скорость извлечения 2.5 X Качество трека 100.0 % CRC теста 1CA8C1DB CRC копии 1CA8C1DB Копирование... OK

Трек 2

Имя файла C:\Documents and Settings\BARKAS\Мои документы\Моя музыка\02 It`s A Long Way Down.wav

Пиковый уровень 100.0 % Скорость извлечения 2.7 X Качество трека 100.0 % CRC теста E5C6D4F8 CRC копии E5C6D4F8 Копирование... OK

Трек 3

Имя файла C:\Documents and Settings\BARKAS\Мои документы\Моя музыка\03 My Life For Thee.wav

Пиковый уровень 100.0 % Скорость извлечения 2.9 X Качество трека 100.0 % CRC теста 9000FADE CRC копии 9000FADE Копирование... OK

Трек 4

Имя файла C:\Documents and Settings\BARKAS\Мои документы\Моя музыка\04 She Screams Out My Name.wav

Пиковый уровень 100.0 % Скорость извлечения 3.0 X Качество трека 100.0 % CRC теста 6EF57369 CRC копии 6EF57369 Копирование... OK

Трек 5

Имя файла C:\Documents and Settings\BARKAS\Мои документы\Моя музыка\05 The Man In The Cunt Skin Mask.wav

Пиковый уровень 100.0 % Скорость извлечения 2.9 X Качество трека 99.9 % CRC теста 4A05D9C0 CRC копии 4A05D9C0 Копирование... OK

Трек 6

Имя файла C:\Documents and Settings\BARKAS\Мои документы\Моя музыка\06 The Last Temptation (Was You).wav

Пиковый уровень 100.0 % Скорость извлечения 3.5 X Качество трека 100.0 % CRC теста 20C92AF1 CRC копии 20C92AF1 Копирование... OK

Трек 7

Имя файла C:\Documents and Settings\BARKAS\Мои документы\Моя музыка\07 Paranoid.wav

Пиковый уровень 100.0 % Скорость извлечения 3.1 X Качество трека 99.9 % CRC теста 9C242AD0 CRC копии 9C242AD0 Копирование... OK

Трек 8

Имя файла C:\Documents and Settings\BARKAS\Мои документы\Моя музыка\08 Strange Times Are Coming.wav

Пиковый уровень 100.0 % Скорость извлечения 3.7 X Качество трека 100.0 % CRC теста E295E193 CRC копии E295E193 Копирование... OK

Трек 9

Имя файла C:\Documents and Settings\BARKAS\Мои документы\Моя музыка\09 The Shredder.wav

Пиковый уровень 100.0 % Скорость извлечения 3.9 X Качество трека 100.0 % CRC теста 410074FF CRC копии 410074FF Копирование... OK

Трек 10

Имя файла C:\Documents and Settings\BARKAS\Мои документы\Моя музыка\10 Girl Meat Fever.wav

Пиковый уровень 100.0 % Скорость извлечения 3.3 X Качество трека 99.9 % CRC теста 44670F14 CRC копии 44670F14 Копирование... OK

Трек 11

Имя файла C:\Documents and Settings\BARKAS\Мои документы\Моя музыка\11 Drag You Down To Hell.wav

Пиковый уровень 100.0 % Скорость извлечения 4.0 X Качество трека 100.0 % CRC теста B0B756BC CRC копии B0B756BC Копирование... OK

Трек 12

Имя файла C:\Documents and Settings\BARKAS\Мои документы\Моя музыка\12 Ain`t No Turning Back.wav

Пиковый уровень 100.0 % Скорость извлечения 4.0 X Качество трека 100.0 % CRC теста 346CA9E8 CRC копии 346CA9E8 Копирование... OK

Трек 13

Имя файла C:\Documents and Settings\BARKAS\Мои документы\Моя музыка\13 Don`t Blame Me.wav

Пиковый уровень 100.0 % Скорость извлечения 4.5 X Качество трека 100.0 % CRC теста 69EB92DF CRC копии 69EB92DF Копирование... OK

Трек 14

Имя файла C:\Documents and Settings\BARKAS\Мои документы\Моя музыка\14 The Day The Earth Dripp`d Blood.wav

Пиковый уровень 100.0 % Скорость извлечения 4.7 X Качество трека 100.0 % CRC теста 879513F8 CRC копии 879513F8 Копирование... OK

Трек 15

Имя файла C:\Documents and Settings\BARKAS\Мои документы\Моя музыка\15 Hell Must Be Empty (All The Demons Are Here).wav

Пиковый уровень 100.0 % Скорость извлечения 4.6 X Качество трека 100.0 % CRC теста C3A3AF1A CRC копии C3A3AF1A Копирование... OK

Трек 16

Имя файла C:\Documents and Settings\BARKAS\Мои документы\Моя музыка\16 Fuck Your World.wav

Пиковый уровень 100.0 % Скорость извлечения 5.3 X Качество трека 100.0 % CRC теста E1D3E290 CRC копии E1D3E290 Копирование... OK

Ошибок не произошло

Конец отчёта

------------------------------------------------------------

Exact Audio Copy V1.0 beta 3 from 29. August 2011

Отчёт EAC об извлечении, выполненном 18. ноября 2012, 21:20

The Meteors / Doing The Lords Work

Дисковод: Optiarc DVD RW AD-7203A Adapter: 0 ID: 0

Режим чтения : ДостоверностьИспользование точного потока : ДаОтключение кэша аудио : ДаИспользование указателей C2 : Нет

Коррекция смещения при чтении : 0Способность читать области Lead-in и Lead-out : НетЗаполнение пропущенных сэмплов тишиной : ДаУдаление блоков с тишиной в начале и конце : НетПри вычислениях CRC использовались нулевые сэмплы : ДаИнтерфейс : Установленный внешний ASPI-интерфейсОбработка зазоров : Не обнаружено, добавлено к предыдущему треку

Выходной формат : Пользовательский кодировщикВыбранный битрейт : 1024 kBit/sКачество : ВысокийДобавление ID3-тега : НетУтилита сжатия : C:\Program Files\Exact Audio Copy\Flac\flac.exeДополнительные параметры : -V -8 -T "Date=%year%" -T "Genre=%genre%" %source%

TOC извлечённого CD

Трек | Старт | Длительность | Начальный сектор | Конечный сектор --------------------------------------------------------------------- 1 | 0:00.00 | 3:28.16 | 0 | 15615 2 | 3:28.16 | 4:01.08 | 15616 | 33698 3 | 7:29.24 | 3:56.48 | 33699 | 51446 4 | 11:25.72 | 3:00.31 | 51447 | 64977 5 | 14:26.28 | 4:05.53 | 64978 | 83405 6 | 18:32.06 | 3:56.34 | 83406 | 101139 7 | 22:28.40 | 3:19.42 | 101140 | 116106 8 | 25:48.07 | 3:36.00 | 116107 | 132306 9 | 29:24.07 | 3:47.43 | 132307 | 149374 10 | 33:11.50 | 2:53.49 | 149375 | 162398 11 | 36:05.24 | 2:39.12 | 162399 | 174335 12 | 38:44.36 | 2:25.13 | 174336 | 185223 13 | 41:09.49 | 4:24.00 | 185224 | 205023 14 | 45:33.49 | 4:41.74 | 205024 | 226172 15 | 50:15.48 | 3:28.69 | 226173 | 241841 16 | 53:44.42 | 8:45.69 | 241842 | 281285

Трек 1

Имя файла C:\Documents and Settings\BARKAS\Мои документы\Моя музыка\01 My Psychobilly Syndrome (WWWC Bloody Pit Of Horror Mix).wav

Пиковый уровень 100.0 % Скорость извлечения 2.5 X Качество трека 100.0 % CRC теста 1CA8C1DB CRC копии 1CA8C1DB Копирование... OK

Трек 2

Имя файла C:\Documents and Settings\BARKAS\Мои документы\Моя музыка\02 It`s A Long Way Down.wav

Пиковый уровень 100.0 % Скорость извлечения 2.7 X Качество трека 100.0 % CRC теста E5C6D4F8 CRC копии E5C6D4F8 Копирование... OK

Трек 3

Имя файла C:\Documents and Settings\BARKAS\Мои документы\Моя музыка\03 My Life For Thee.wav

Пиковый уровень 100.0 % Скорость извлечения 2.9 X Качество трека 100.0 % CRC теста 9000FADE CRC копии 9000FADE Копирование... OK

Трек 4

Имя файла C:\Documents and Settings\BARKAS\Мои документы\Моя музыка\04 She Screams Out My Name.wav

Пиковый уровень 100.0 % Скорость извлечения 3.0 X Качество трека 100.0 % CRC теста 6EF57369 CRC копии 6EF57369 Копирование... OK

Трек 5

Имя файла C:\Documents and Settings\BARKAS\Мои документы\Моя музыка\05 The Man In The Cunt Skin Mask.wav

Пиковый уровень 100.0 % Скорость извлечения 2.9 X Качество трека 99.9 % CRC теста 4A05D9C0 CRC копии 4A05D9C0 Копирование... OK

Трек 6

Имя файла C:\Documents and Settings\BARKAS\Мои документы\Моя музыка\06 The Last Temptation (Was You).wav

Пиковый уровень 100.0 % Скорость извлечения 3.5 X Качество трека 100.0 % CRC теста 20C92AF1 CRC копии 20C92AF1 Копирование... OK

Трек 7

Имя файла C:\Documents and Settings\BARKAS\Мои документы\Моя музыка\07 Paranoid.wav

Пиковый уровень 100.0 % Скорость извлечения 3.1 X Качество трека 99.9 % CRC теста 9C242AD0 CRC копии 9C242AD0 Копирование... OK

Трек 8

Имя файла C:\Documents and Settings\BARKAS\Мои документы\Моя музыка\08 Strange Times Are Coming.wav

Пиковый уровень 100.0 % Скорость извлечения 3.7 X Качество трека 100.0 % CRC теста E295E193 CRC копии E295E193 Копирование... OK

Трек 9

Имя файла C:\Documents and Settings\BARKAS\Мои документы\Моя музыка\09 The Shredder.wav

Пиковый уровень 100.0 % Скорость извлечения 3.9 X Качество трека 100.0 % CRC теста 410074FF CRC копии 410074FF Копирование... OK

Трек 10

Имя файла C:\Documents and Settings\BARKAS\Мои документы\Моя музыка\10 Girl Meat Fever.wav

Пиковый уровень 100.0 % Скорость извлечения 3.3 X Качество трека 99.9 % CRC теста 44670F14 CRC копии 44670F14 Копирование... OK

Трек 11

Имя файла C:\Documents and Settings\BARKAS\Мои документы\Моя музыка\11 Drag You Down To Hell.wav

Пиковый уровень 100.0 % Скорость извлечения 4.0 X Качество трека 100.0 % CRC теста B0B756BC CRC копии B0B756BC Копирование... OK

Трек 12

Имя файла C:\Documents and Settings\BARKAS\Мои документы\Моя музыка\12 Ain`t No Turning Back.wav

Пиковый уровень 100.0 % Скорость извлечения 4.0 X Качество трека 100.0 % CRC теста 346CA9E8 CRC копии 346CA9E8 Копирование... OK

Трек 13

Имя файла C:\Documents and Settings\BARKAS\Мои документы\Моя музыка\13 Don`t Blame Me.wav

Пиковый уровень 100.0 % Скорость извлечения 4.5 X Качество трека 100.0 % CRC теста 69EB92DF CRC копии 69EB92DF Копирование... OK

Трек 14

Имя файла C:\Documents and Settings\BARKAS\Мои документы\Моя музыка\14 The Day The Earth Dripp`d Blood.wav

Пиковый уровень 100.0 % Скорость извлечения 4.7 X Качество трека 100.0 % CRC теста 879513F8 CRC копии 879513F8 Копирование... OK

Трек 15

Имя файла C:\Documents and Settings\BARKAS\Мои документы\Моя музыка\15 Hell Must Be Empty (All The Demons Are Here).wav

Пиковый уровень 100.0 % Скорость извлечения 4.6 X Качество трека 100.0 % CRC теста C3A3AF1A CRC копии C3A3AF1A Копирование... OK

Трек 16

Имя файла C:\Documents and Settings\BARKAS\Мои документы\Моя музыка\16 Fuck Your World.wav

Пиковый уровень 100.0 % Скорость извлечения 5.3 X Качество трека 100.0 % CRC теста E1D3E290 CRC копии E1D3E290 Копирование... OK

Ошибок не произошло

Конец отчёта

------------------------------------------------------------

Exact Audio Copy V1.0 beta 3 from 29. August 2011

Отчёт EAC об извлечении, выполненном 18. ноября 2012, 21:20

The Meteors / Doing The Lords Work

Дисковод: Optiarc DVD RW AD-7203A Adapter: 0 ID: 0

Режим чтения : ДостоверностьИспользование точного потока : ДаОтключение кэша аудио : ДаИспользование указателей C2 : Нет

Коррекция смещения при чтении : 0Способность читать области Lead-in и Lead-out : НетЗаполнение пропущенных сэмплов тишиной : ДаУдаление блоков с тишиной в начале и конце : НетПри вычислениях CRC использовались нулевые сэмплы : ДаИнтерфейс : Установленный внешний ASPI-интерфейсОбработка зазоров : Не обнаружено, добавлено к предыдущему треку

Выходной формат : Пользовательский кодировщикВыбранный битрейт : 1024 kBit/sКачество : ВысокийДобавление ID3-тега : НетУтилита сжатия : C:\Program Files\Exact Audio Copy\Flac\flac.exeДополнительные параметры : -V -8 -T "Date=%year%" -T "Genre=%genre%" %source%

TOC извлечённого CD

Трек | Старт | Длительность | Начальный сектор | Конечный сектор --------------------------------------------------------------------- 1 | 0:00.00 | 3:28.16 | 0 | 15615 2 | 3:28.16 | 4:01.08 | 15616 | 33698 3 | 7:29.24 | 3:56.48 | 33699 | 51446 4 | 11:25.72 | 3:00.31 | 51447 | 64977 5 | 14:26.28 | 4:05.53 | 64978 | 83405 6 | 18:32.06 | 3:56.34 | 83406 | 101139 7 | 22:28.40 | 3:19.42 | 101140 | 116106 8 | 25:48.07 | 3:36.00 | 116107 | 132306 9 | 29:24.07 | 3:47.43 | 132307 | 149374 10 | 33:11.50 | 2:53.49 | 149375 | 162398 11 | 36:05.24 | 2:39.12 | 162399 | 174335 12 | 38:44.36 | 2:25.13 | 174336 | 185223 13 | 41:09.49 | 4:24.00 | 185224 | 205023 14 | 45:33.49 | 4:41.74 | 205024 | 226172 15 | 50:15.48 | 3:28.69 | 226173 | 241841 16 | 53:44.42 | 8:45.69 | 241842 | 281285

Трек 1

Имя файла C:\Documents and Settings\BARKAS\Мои документы\Моя музыка\01 My Psychobilly Syndrome (WWWC Bloody Pit Of Horror Mix).wav

Пиковый уровень 100.0 % Скорость извлечения 2.5 X Качество трека 100.0 % CRC теста 1CA8C1DB CRC копии 1CA8C1DB Копирование... OK

Трек 2

Имя файла C:\Documents and Settings\BARKAS\Мои документы\Моя музыка\02 It`s A Long Way Down.wav

Пиковый уровень 100.0 % Скорость извлечения 2.7 X Качество трека 100.0 % CRC теста E5C6D4F8 CRC копии E5C6D4F8 Копирование... OK

Трек 3

Имя файла C:\Documents and Settings\BARKAS\Мои документы\Моя музыка\03 My Life For Thee.wav

Пиковый уровень 100.0 % Скорость извлечения 2.9 X Качество трека 100.0 % CRC теста 9000FADE CRC копии 9000FADE Копирование... OK

Трек 4

Имя файла C:\Documents and Settings\BARKAS\Мои документы\Моя музыка\04 She Screams Out My Name.wav

Пиковый уровень 100.0 % Скорость извлечения 3.0 X Качество трека 100.0 % CRC теста 6EF57369 CRC копии 6EF57369 Копирование... OK

Трек 5

Имя файла C:\Documents and Settings\BARKAS\Мои документы\Моя музыка\05 The Man In The Cunt Skin Mask.wav

Пиковый уровень 100.0 % Скорость извлечения 2.9 X Качество трека 99.9 % CRC теста 4A05D9C0 CRC копии 4A05D9C0 Копирование... OK

Трек 6

Имя файла C:\Documents and Settings\BARKAS\Мои документы\Моя музыка\06 The Last Temptation (Was You).wav

Пиковый уровень 100.0 % Скорость извлечения 3.5 X Качество трека 100.0 % CRC теста 20C92AF1 CRC копии 20C92AF1 Копирование... OK

Трек 7

Имя файла C:\Documents and Settings\BARKAS\Мои документы\Моя музыка\07 Paranoid.wav

Пиковый уровень 100.0 % Скорость извлечения 3.1 X Качество трека 99.9 % CRC теста 9C242AD0 CRC копии 9C242AD0 Копирование... OK

Трек 8

Имя файла C:\Documents and Settings\BARKAS\Мои документы\Моя музыка\08 Strange Times Are Coming.wav

Пиковый уровень 100.0 % Скорость извлечения 3.7 X Качество трека 100.0 % CRC теста E295E193 CRC копии E295E193 Копирование... OK

Трек 9

Имя файла C:\Documents and Settings\BARKAS\Мои документы\Моя музыка\09 The Shredder.wav

Пиковый уровень 100.0 % Скорость извлечения 3.9 X Качество трека 100.0 % CRC теста 410074FF CRC копии 410074FF Копирование... OK

Трек 10

Имя файла C:\Documents and Settings\BARKAS\Мои документы\Моя музыка\10 Girl Meat Fever.wav

Пиковый уровень 100.0 % Скорость извлечения 3.3 X Качество трека 99.9 % CRC теста 44670F14 CRC копии 44670F14 Копирование... OK

Трек 11

Имя файла C:\Documents and Settings\BARKAS\Мои документы\Моя музыка\11 Drag You Down To Hell.wav

Пиковый уровень 100.0 % Скорость извлечения 4.0 X Качество трека 100.0 % CRC теста B0B756BC CRC копии B0B756BC Копирование... OK

Трек 12

Имя файла C:\Documents and Settings\BARKAS\Мои документы\Моя музыка\12 Ain`t No Turning Back.wav

Пиковый уровень 100.0 % Скорость извлечения 4.0 X Качество трека 100.0 % CRC теста 346CA9E8 CRC копии 346CA9E8 Копирование... OK

Трек 13

Имя файла C:\Documents and Settings\BARKAS\Мои документы\Моя музыка\13 Don`t Blame Me.wav

Пиковый уровень 100.0 % Скорость извлечения 4.5 X Качество трека 100.0 % CRC теста 69EB92DF CRC копии 69EB92DF Копирование... OK

Трек 14

Имя файла C:\Documents and Settings\BARKAS\Мои документы\Моя музыка\14 The Day The Earth Dripp`d Blood.wav

Пиковый уровень 100.0 % Скорость извлечения 4.7 X Качество трека 100.0 % CRC теста 879513F8 CRC копии 879513F8 Копирование... OK

Трек 15

Имя файла C:\Documents and Settings\BARKAS\Мои документы\Моя музыка\15 Hell Must Be Empty (All The Demons Are Here).wav

Пиковый уровень 100.0 % Скорость извлечения 4.6 X Качество трека 100.0 % CRC теста C3A3AF1A CRC копии C3A3AF1A Копирование... OK

Трек 16

Имя файла C:\Documents and Settings\BARKAS\Мои документы\Моя музыка\16 Fuck Your World.wav

Пиковый уровень 100.0 % Скорость извлечения 5.3 X Качество трека 100.0 % CRC теста E1D3E290 CRC копии E1D3E290 Копирование... OK

Ошибок не произошло

Конец отчёта

------------------------------------------------------------

Exact Audio Copy V1.0 beta 3 from 29. August 2011

Отчёт EAC об извлечении, выполненном 18. ноября 2012, 21:20

The Meteors / Doing The Lords Work

Дисковод: Optiarc DVD RW AD-7203A Adapter: 0 ID: 0

Режим чтения : ДостоверностьИспользование точного потока : ДаОтключение кэша аудио : ДаИспользование указателей C2 : Нет

Коррекция смещения при чтении : 0Способность читать области Lead-in и Lead-out : НетЗаполнение пропущенных сэмплов тишиной : ДаУдаление блоков с тишиной в начале и конце : НетПри вычислениях CRC использовались нулевые сэмплы : ДаИнтерфейс : Установленный внешний ASPI-интерфейсОбработка зазоров : Не обнаружено, добавлено к предыдущему треку

Выходной формат : Пользовательский кодировщикВыбранный битрейт : 1024 kBit/sКачество : ВысокийДобавление ID3-тега : НетУтилита сжатия : C:\Program Files\Exact Audio Copy\Flac\flac.exeДополнительные параметры : -V -8 -T "Date=%year%" -T "Genre=%genre%" %source%

TOC извлечённого CD

Трек | Старт | Длительность | Начальный сектор | Конечный сектор --------------------------------------------------------------------- 1 | 0:00.00 | 3:28.16 | 0 | 15615 2 | 3:28.16 | 4:01.08 | 15616 | 33698 3 | 7:29.24 | 3:56.48 | 33699 | 51446 4 | 11:25.72 | 3:00.31 | 51447 | 64977 5 | 14:26.28 | 4:05.53 | 64978 | 83405 6 | 18:32.06 | 3:56.34 | 83406 | 101139 7 | 22:28.40 | 3:19.42 | 101140 | 116106 8 | 25:48.07 | 3:36.00 | 116107 | 132306 9 | 29:24.07 | 3:47.43 | 132307 | 149374 10 | 33:11.50 | 2:53.49 | 149375 | 162398 11 | 36:05.24 | 2:39.12 | 162399 | 174335 12 | 38:44.36 | 2:25.13 | 174336 | 185223 13 | 41:09.49 | 4:24.00 | 185224 | 205023 14 | 45:33.49 | 4:41.74 | 205024 | 226172 15 | 50:15.48 | 3:28.69 | 226173 | 241841 16 | 53:44.42 | 8:45.69 | 241842 | 281285

Трек 1

Имя файла C:\Documents and Settings\BARKAS\Мои документы\Моя музыка\01 My Psychobilly Syndrome (WWWC Bloody Pit Of Horror Mix).wav

Пиковый уровень 100.0 % Скорость извлечения 2.5 X Качество трека 100.0 % CRC теста 1CA8C1DB CRC копии 1CA8C1DB Копирование... OK

Трек 2

Имя файла C:\Documents and Settings\BARKAS\Мои документы\Моя музыка\02 It`s A Long Way Down.wav

Пиковый уровень 100.0 % Скорость извлечения 2.7 X Качество трека 100.0 % CRC теста E5C6D4F8 CRC копии E5C6D4F8 Копирование... OK

Трек 3

Имя файла C:\Documents and Settings\BARKAS\Мои документы\Моя музыка\03 My Life For Thee.wav

Пиковый уровень 100.0 % Скорость извлечения 2.9 X Качество трека 100.0 % CRC теста 9000FADE CRC копии 9000FADE Копирование... OK

Трек 4

Имя файла C:\Documents and Settings\BARKAS\Мои документы\Моя музыка\04 She Screams Out My Name.wav

Пиковый уровень 100.0 % Скорость извлечения 3.0 X Качество трека 100.0 % CRC теста 6EF57369 CRC копии 6EF57369 Копирование... OK

Трек 5

Имя файла C:\Documents and Settings\BARKAS\Мои документы\Моя музыка\05 The Man In The Cunt Skin Mask.wav

Пиковый уровень 100.0 % Скорость извлечения 2.9 X Качество трека 99.9 % CRC теста 4A05D9C0 CRC копии 4A05D9C0 Копирование... OK

Трек 6

Имя файла C:\Documents and Settings\BARKAS\Мои документы\Моя музыка\06 The Last Temptation (Was You).wav

Пиковый уровень 100.0 % Скорость извлечения 3.5 X Качество трека 100.0 % CRC теста 20C92AF1 CRC копии 20C92AF1 Копирование... OK

Трек 7

Имя файла C:\Documents and Settings\BARKAS\Мои документы\Моя музыка\07 Paranoid.wav

Пиковый уровень 100.0 % Скорость извлечения 3.1 X Качество трека 99.9 % CRC теста 9C242AD0 CRC копии 9C242AD0 Копирование... OK

Трек 8

Имя файла C:\Documents and Settings\BARKAS\Мои документы\Моя музыка\08 Strange Times Are Coming.wav

Пиковый уровень 100.0 % Скорость извлечения 3.7 X Качество трека 100.0 % CRC теста E295E193 CRC копии E295E193 Копирование... OK

Трек 9

Имя файла C:\Documents and Settings\BARKAS\Мои документы\Моя музыка\09 The Shredder.wav

Пиковый уровень 100.0 % Скорость извлечения 3.9 X Качество трека 100.0 % CRC теста 410074FF CRC копии 410074FF Копирование... OK

Трек 10

Имя файла C:\Documents and Settings\BARKAS\Мои документы\Моя музыка\10 Girl Meat Fever.wav

Пиковый уровень 100.0 % Скорость извлечения 3.3 X Качество трека 99.9 % CRC теста 44670F14 CRC копии 44670F14 Копирование... OK

Трек 11

Имя файла C:\Documents and Settings\BARKAS\Мои документы\Моя музыка\11 Drag You Down To Hell.wav

Пиковый уровень 100.0 % Скорость извлечения 4.0 X Качество трека 100.0 % CRC теста B0B756BC CRC копии B0B756BC Копирование... OK

Трек 12

Имя файла C:\Documents and Settings\BARKAS\Мои документы\Моя музыка\12 Ain`t No Turning Back.wav

Пиковый уровень 100.0 % Скорость извлечения 4.0 X Качество трека 100.0 % CRC теста 346CA9E8 CRC копии 346CA9E8 Копирование... OK

Трек 13

Имя файла C:\Documents and Settings\BARKAS\Мои документы\Моя музыка\13 Don`t Blame Me.wav

Пиковый уровень 100.0 % Скорость извлечения 4.5 X Качество трека 100.0 % CRC теста 69EB92DF CRC копии 69EB92DF Копирование... OK

Трек 14

Имя файла C:\Documents and Settings\BARKAS\Мои документы\Моя музыка\14 The Day The Earth Dripp`d Blood.wav

Пиковый уровень 100.0 % Скорость извлечения 4.7 X Качество трека 100.0 % CRC теста 879513F8 CRC копии 879513F8 Копирование... OK

Трек 15

Имя файла C:\Documents and Settings\BARKAS\Мои документы\Моя музыка\15 Hell Must Be Empty (All The Demons Are Here).wav

Пиковый уровень 100.0 % Скорость извлечения 4.6 X Качество трека 100.0 % CRC теста C3A3AF1A CRC копии C3A3AF1A Копирование... OK

Трек 16

Имя файла C:\Documents and Settings\BARKAS\Мои документы\Моя музыка\16 Fuck Your World.wav

Пиковый уровень 100.0 % Скорость извлечения 5.3 X Качество трека 100.0 % CRC теста E1D3E290 CRC копии E1D3E290 Копирование... OK

Ошибок не произошло

Конец отчёта

------------------------------------------------------------

Exact Audio Copy V1.0 beta 3 from 29. August 2011

Отчёт EAC об извлечении, выполненном 18. ноября 2012, 21:20

The Meteors / Doing The Lords Work

Дисковод: Optiarc DVD RW AD-7203A Adapter: 0 ID: 0

Режим чтения : ДостоверностьИспользование точного потока : ДаОтключение кэша аудио : ДаИспользование указателей C2 : Нет

Коррекция смещения при чтении : 0Способность читать области Lead-in и Lead-out : НетЗаполнение пропущенных сэмплов тишиной : ДаУдаление блоков с тишиной в начале и конце : НетПри вычислениях CRC использовались нулевые сэмплы : ДаИнтерфейс : Установленный внешний ASPI-интерфейсОбработка зазоров : Не обнаружено, добавлено к предыдущему треку

Выходной формат : Пользовательский кодировщикВыбранный битрейт : 1024 kBit/sКачество : ВысокийДобавление ID3-тега : НетУтилита сжатия : C:\Program Files\Exact Audio Copy\Flac\flac.exeДополнительные параметры : -V -8 -T "Date=%year%" -T "Genre=%genre%" %source%

TOC извлечённого CD

Трек | Старт | Длительность | Начальный сектор | Конечный сектор --------------------------------------------------------------------- 1 | 0:00.00 | 3:28.16 | 0 | 15615 2 | 3:28.16 | 4:01.08 | 15616 | 33698 3 | 7:29.24 | 3:56.48 | 33699 | 51446 4 | 11:25.72 | 3:00.31 | 51447 | 64977 5 | 14:26.28 | 4:05.53 | 64978 | 83405 6 | 18:32.06 | 3:56.34 | 83406 | 101139 7 | 22:28.40 | 3:19.42 | 101140 | 116106 8 | 25:48.07 | 3:36.00 | 116107 | 132306 9 | 29:24.07 | 3:47.43 | 132307 | 149374 10 | 33:11.50 | 2:53.49 | 149375 | 162398 11 | 36:05.24 | 2:39.12 | 162399 | 174335 12 | 38:44.36 | 2:25.13 | 174336 | 185223 13 | 41:09.49 | 4:24.00 | 185224 | 205023 14 | 45:33.49 | 4:41.74 | 205024 | 226172 15 | 50:15.48 | 3:28.69 | 226173 | 241841 16 | 53:44.42 | 8:45.69 | 241842 | 281285

Трек 1

Имя файла C:\Documents and Settings\BARKAS\Мои документы\Моя музыка\01 My Psychobilly Syndrome (WWWC Bloody Pit Of Horror Mix).wav

Пиковый уровень 100.0 % Скорость извлечения 2.5 X Качество трека 100.0 % CRC теста 1CA8C1DB CRC копии 1CA8C1DB Копирование... OK

Трек 2

Имя файла C:\Documents and Settings\BARKAS\Мои документы\Моя музыка\02 It`s A Long Way Down.wav

Пиковый уровень 100.0 % Скорость извлечения 2.7 X Качество трека 100.0 % CRC теста E5C6D4F8 CRC копии E5C6D4F8 Копирование... OK

Трек 3

Имя файла C:\Documents and Settings\BARKAS\Мои документы\Моя музыка\03 My Life For Thee.wav

Пиковый уровень 100.0 % Скорость извлечения 2.9 X Качество трека 100.0 % CRC теста 9000FADE CRC копии 9000FADE Копирование... OK

Трек 4

Имя файла C:\Documents and Settings\BARKAS\Мои документы\Моя музыка\04 She Screams Out My Name.wav

Пиковый уровень 100.0 % Скорость извлечения 3.0 X Качество трека 100.0 % CRC теста 6EF57369 CRC копии 6EF57369 Копирование... OK

Трек 5

Имя файла C:\Documents and Settings\BARKAS\Мои документы\Моя музыка\05 The Man In The Cunt Skin Mask.wav

Пиковый уровень 100.0 % Скорость извлечения 2.9 X Качество трека 99.9 % CRC теста 4A05D9C0 CRC копии 4A05D9C0 Копирование... OK

Трек 6

Имя файла C:\Documents and Settings\BARKAS\Мои документы\Моя музыка\06 The Last Temptation (Was You).wav

Пиковый уровень 100.0 % Скорость извлечения 3.5 X Качество трека 100.0 % CRC теста 20C92AF1 CRC копии 20C92AF1 Копирование... OK

Трек 7

Имя файла C:\Documents and Settings\BARKAS\Мои документы\Моя музыка\07 Paranoid.wav

Пиковый уровень 100.0 % Скорость извлечения 3.1 X Качество трека 99.9 % CRC теста 9C242AD0 CRC копии 9C242AD0 Копирование... OK

Трек 8

Имя файла C:\Documents and Settings\BARKAS\Мои документы\Моя музыка\08 Strange Times Are Coming.wav

Пиковый уровень 100.0 % Скорость извлечения 3.7 X Качество трека 100.0 % CRC теста E295E193 CRC копии E295E193 Копирование... OK

Трек 9

Имя файла C:\Documents and Settings\BARKAS\Мои документы\Моя музыка\09 The Shredder.wav

Пиковый уровень 100.0 % Скорость извлечения 3.9 X Качество трека 100.0 % CRC теста 410074FF CRC копии 410074FF Копирование... OK

Трек 10

Имя файла C:\Documents and Settings\BARKAS\Мои документы\Моя музыка\10 Girl Meat Fever.wav

Пиковый уровень 100.0 % Скорость извлечения 3.3 X Качество трека 99.9 % CRC теста 44670F14 CRC копии 44670F14 Копирование... OK

Трек 11

Имя файла C:\Documents and Settings\BARKAS\Мои документы\Моя музыка\11 Drag You Down To Hell.wav

Пиковый уровень 100.0 % Скорость извлечения 4.0 X Качество трека 100.0 % CRC теста B0B756BC CRC копии B0B756BC Копирование... OK

Трек 12

Имя файла C:\Documents and Settings\BARKAS\Мои документы\Моя музыка\12 Ain`t No Turning Back.wav

Пиковый уровень 100.0 % Скорость извлечения 4.0 X Качество трека 100.0 % CRC теста 346CA9E8 CRC копии 346CA9E8 Копирование... OK

Трек 13

Имя файла C:\Documents and Settings\BARKAS\Мои документы\Моя музыка\13 Don`t Blame Me.wav

Пиковый уровень 100.0 % Скорость извлечения 4.5 X Качество трека 100.0 % CRC теста 69EB92DF CRC копии 69EB92DF Копирование... OK

Трек 14

Имя файла C:\Documents and Settings\BARKAS\Мои документы\Моя музыка\14 The Day The Earth Dripp`d Blood.wav

Пиковый уровень 100.0 % Скорость извлечения 4.7 X Качество трека 100.0 % CRC теста 879513F8 CRC копии 879513F8 Копирование... OK

Трек 15

Имя файла C:\Documents and Settings\BARKAS\Мои документы\Моя музыка\15 Hell Must Be Empty (All The Demons Are Here).wav

Пиковый уровень 100.0 % Скорость извлечения 4.6 X Качество трека 100.0 % CRC теста C3A3AF1A CRC копии C3A3AF1A Копирование... OK

Трек 16

Имя файла C:\Documents and Settings\BARKAS\Мои документы\Моя музыка\16 Fuck Your World.wav

Пиковый уровень 100.0 % Скорость извлечения 5.3 X Качество трека 100.0 % CRC теста E1D3E290 CRC копии E1D3E290 Копирование... OK

Ошибок не произошло

Конец отчёта

------------------------------------------------------------

Exact Audio Copy V1.0 beta 3 from 29. August 2011

Отчёт EAC об извлечении, выполненном 18. ноября 2012, 21:20

The Meteors / Doing The Lords Work

Дисковод: Optiarc DVD RW AD-7203A Adapter: 0 ID: 0

Режим чтения : ДостоверностьИспользование точного потока : ДаОтключение кэша аудио : ДаИспользование указателей C2 : Нет

Коррекция смещения при чтении : 0Способность читать области Lead-in и Lead-out : НетЗаполнение пропущенных сэмплов тишиной : ДаУдаление блоков с тишиной в начале и конце : НетПри вычислениях CRC использовались нулевые сэмплы : ДаИнтерфейс : Установленный внешний ASPI-интерфейсОбработка зазоров : Не обнаружено, добавлено к предыдущему треку

Выходной формат : Пользовательский кодировщикВыбранный битрейт : 1024 kBit/sКачество : ВысокийДобавление ID3-тега : НетУтилита сжатия : C:\Program Files\Exact Audio Copy\Flac\flac.exeДополнительные параметры : -V -8 -T "Date=%year%" -T "Genre=%genre%" %source%

TOC извлечённого CD

Трек | Старт | Длительность | Начальный сектор | Конечный сектор --------------------------------------------------------------------- 1 | 0:00.00 | 3:28.16 | 0 | 15615 2 | 3:28.16 | 4:01.08 | 15616 | 33698 3 | 7:29.24 | 3:56.48 | 33699 | 51446 4 | 11:25.72 | 3:00.31 | 51447 | 64977 5 | 14:26.28 | 4:05.53 | 64978 | 83405 6 | 18:32.06 | 3:56.34 | 83406 | 101139 7 | 22:28.40 | 3:19.42 | 101140 | 116106 8 | 25:48.07 | 3:36.00 | 116107 | 132306 9 | 29:24.07 | 3:47.43 | 132307 | 149374 10 | 33:11.50 | 2:53.49 | 149375 | 162398 11 | 36:05.24 | 2:39.12 | 162399 | 174335 12 | 38:44.36 | 2:25.13 | 174336 | 185223 13 | 41:09.49 | 4:24.00 | 185224 | 205023 14 | 45:33.49 | 4:41.74 | 205024 | 226172 15 | 50:15.48 | 3:28.69 | 226173 | 241841 16 | 53:44.42 | 8:45.69 | 241842 | 281285

Трек 1

Имя файла C:\Documents and Settings\BARKAS\Мои документы\Моя музыка\01 My Psychobilly Syndrome (WWWC Bloody Pit Of Horror Mix).wav

Пиковый уровень 100.0 % Скорость извлечения 2.5 X Качество трека 100.0 % CRC теста 1CA8C1DB CRC копии 1CA8C1DB Копирование... OK

Трек 2

Имя файла C:\Documents and Settings\BARKAS\Мои документы\Моя музыка\02 It`s A Long Way Down.wav

Пиковый уровень 100.0 % Скорость извлечения 2.7 X Качество трека 100.0 % CRC теста E5C6D4F8 CRC копии E5C6D4F8 Копирование... OK

Трек 3

Имя файла C:\Documents and Settings\BARKAS\Мои документы\Моя музыка\03 My Life For Thee.wav

Пиковый уровень 100.0 % Скорость извлечения 2.9 X Качество трека 100.0 % CRC теста 9000FADE CRC копии 9000FADE Копирование... OK

Трек 4

Имя файла C:\Documents and Settings\BARKAS\Мои документы\Моя музыка\04 She Screams Out My Name.wav

Пиковый уровень 100.0 % Скорость извлечения 3.0 X Качество трека 100.0 % CRC теста 6EF57369 CRC копии 6EF57369 Копирование... OK

Трек 5

Имя файла C:\Documents and Settings\BARKAS\Мои документы\Моя музыка\05 The Man In The Cunt Skin Mask.wav

Пиковый уровень 100.0 % Скорость извлечения 2.9 X Качество трека 99.9 % CRC теста 4A05D9C0 CRC копии 4A05D9C0 Копирование... OK

Трек 6

Имя файла C:\Documents and Settings\BARKAS\Мои документы\Моя музыка\06 The Last Temptation (Was You).wav

Пиковый уровень 100.0 % Скорость извлечения 3.5 X Качество трека 100.0 % CRC теста 20C92AF1 CRC копии 20C92AF1 Копирование... OK

Трек 7

Имя файла C:\Documents and Settings\BARKAS\Мои документы\Моя музыка\07 Paranoid.wav

Пиковый уровень 100.0 % Скорость извлечения 3.1 X Качество трека 99.9 % CRC теста 9C242AD0 CRC копии 9C242AD0 Копирование... OK

Трек 8

Имя файла C:\Documents and Settings\BARKAS\Мои документы\Моя музыка\08 Strange Times Are Coming.wav

Пиковый уровень 100.0 % Скорость извлечения 3.7 X Качество трека 100.0 % CRC теста E295E193 CRC копии E295E193 Копирование... OK

Трек 9

Имя файла C:\Documents and Settings\BARKAS\Мои документы\Моя музыка\09 The Shredder.wav

Пиковый уровень 100.0 % Скорость извлечения 3.9 X Качество трека 100.0 % CRC теста 410074FF CRC копии 410074FF Копирование... OK

Трек 10

Имя файла C:\Documents and Settings\BARKAS\Мои документы\Моя музыка\10 Girl Meat Fever.wav

Пиковый уровень 100.0 % Скорость извлечения 3.3 X Качество трека 99.9 % CRC теста 44670F14 CRC копии 44670F14 Копирование... OK

Трек 11

Имя файла C:\Documents and Settings\BARKAS\Мои документы\Моя музыка\11 Drag You Down To Hell.wav

Пиковый уровень 100.0 % Скорость извлечения 4.0 X Качество трека 100.0 % CRC теста B0B756BC CRC копии B0B756BC Копирование... OK

Трек 12

Имя файла C:\Documents and Settings\BARKAS\Мои документы\Моя музыка\12 Ain`t No Turning Back.wav

Пиковый уровень 100.0 % Скорость извлечения 4.0 X Качество трека 100.0 % CRC теста 346CA9E8 CRC копии 346CA9E8 Копирование... OK

Трек 13

Имя файла C:\Documents and Settings\BARKAS\Мои документы\Моя музыка\13 Don`t Blame Me.wav

Пиковый уровень 100.0 % Скорость извлечения 4.5 X Качество трека 100.0 % CRC теста 69EB92DF CRC копии 69EB92DF Копирование... OK

Трек 14

Имя файла C:\Documents and Settings\BARKAS\Мои документы\Моя музыка\14 The Day The Earth Dripp`d Blood.wav

Пиковый уровень 100.0 % Скорость извлечения 4.7 X Качество трека 100.0 % CRC теста 879513F8 CRC копии 879513F8 Копирование... OK

Трек 15

Имя файла C:\Documents and Settings\BARKAS\Мои документы\Моя музыка\15 Hell Must Be Empty (All The Demons Are Here).wav

Пиковый уровень 100.0 % Скорость извлечения 4.6 X Качество трека 100.0 % CRC теста C3A3AF1A CRC копии C3A3AF1A Копирование... OK

Трек 16

Имя файла C:\Documents and Settings\BARKAS\Мои документы\Моя музыка\16 Fuck Your World.wav

Пиковый уровень 100.0 % Скорость извлечения 5.3 X Качество трека 100.0 % CRC теста E1D3E290 CRC копии E1D3E290 Копирование... OK

Ошибок не произошло

Конец отчёта
P. Paul Fenech
Simon Linden
Wolfgang Hordemann


Трекер:  [ 14-Дек-2012 11:11 ]

  

Скачать .torrent

Размер .torrent файла 15 KB


Размер: 344 MB
Хэш (hash) релиза: 1b648367313439c7ee6c5dad15acf1bf414c0b29

Еще никто не оставлял запись к записи скачать торрент The Meteors - Doing The Lords Work - 2012, FLAC . Будь первым!

!Обратная связь