Скачать через торрент музыку Mike Oldfield - The Best of Mike Oldfield Elements - 1993, FLAC бесплатно без регистрации torrent

Если у вас наблюдаются проблемы со скриншотами, переходом по ссылками, скачиванием торрентов - проблемы в блокировщике рекламы AdBlock. #хорошегоДня!


Статистика раздачи
Размер:  404 MB   |    Зарегистрирован:  4 года 11 месяцев   |    .torrent скачан:  21 раз   |   
Раздают:  1  
   
Загрузка...
 
Автор Сообщение

Galfimbul

avatar Galfimbul


Mike Oldfield / The Best of Mike Oldfield Elements

Жанр: Rock
Страна-производитель диска: Holland
Год издания: 1993
Издатель (лейбл): VIRGIN
Номер по каталогу: 7243 8 39069 25 VICD18
Страна: England
Аудиокодек: FLAC (*.flac)
Тип рипа: image+.cue
Битрейт аудио: lossless
Продолжительность: 63:22
Источник (релизер): Собственный рип с фирменного диска
Наличие сканов в содержимом раздачи: да

Треклист:

01. Tubular Bells (Opening Theme)
02. Family Man
03. Moonlight Shadow
04. Heaven's Open
05. Five Miles Out
06. To France
07. Foreign Affair
08. In Dulci Jubilo
09. Shadow On The Wall
10. Islands
11. Etude
12. Sentinel
13. Ommadawn (Excerpt)
14. Incantations (Part Four) (Excerpt)
15. Amarok (Excerpt)
16. Portsmouth
Exact Audio Copy V1.0 beta 3 from 29. August 2011

Отчёт EAC об извлечении, выполненном 25. ноября 2012, 12:38

Mike Oldfield / The Best of Mike Oldfield-Elements

Дисковод: PIONEER DVD-RW DVR-118L Adapter: 0 ID: 0

Режим чтения : ДостоверностьИспользование точного потока : ДаОтключение кэша аудио : ДаИспользование указателей C2 : Нет

Коррекция смещения при чтении : 6Способность читать области Lead-in и Lead-out : НетЗаполнение пропущенных сэмплов тишиной : ДаУдаление блоков с тишиной в начале и конце : НетПри вычислениях CRC использовались нулевые сэмплы : ДаИнтерфейс : Встроенный Win32-интерфейс для Win NT/2000

Выходной формат : Пользовательский кодировщикВыбранный битрейт : 768 kBit/sКачество : ВысокийДобавление ID3-тега : НетУтилита сжатия : C:\Program Files\Exact Audio Copy\FLAC\FLAC.EXEДополнительные параметры : -V -8 -T "Date=%year%" -T "Genre=%genre%" %source%

TOC извлечённого CD

Трек | Старт | Длительность | Начальный сектор | Конечный сектор --------------------------------------------------------------------- 1 | 0:00.33 | 4:19.00 | 33 | 19457 2 | 4:19.33 | 3:45.47 | 19458 | 36379 3 | 8:05.05 | 3:36.03 | 36380 | 52582 4 | 11:41.08 | 4:27.07 | 52583 | 72614 5 | 16:08.15 | 4:15.43 | 72615 | 91782 6 | 20:23.58 | 4:43.32 | 91783 | 113039 7 | 25:07.15 | 3:54.03 | 113040 | 130592 8 | 29:01.18 | 2:50.55 | 130593 | 143397 9 | 31:51.73 | 5:07.47 | 143398 | 166469 10 | 36:59.45 | 4:17.58 | 166470 | 185802 11 | 41:17.28 | 3:07.15 | 185803 | 199842 12 | 44:24.43 | 3:56.30 | 199843 | 217572 13 | 48:20.73 | 3:38.40 | 217573 | 233962 14 | 51:59.38 | 4:39.30 | 233963 | 254917 15 | 56:38.68 | 4:43.42 | 254918 | 276184 16 | 61:22.35 | 2:00.33 | 276185 | 285217

Характеристики диапазона извлечения и сообщения об ошибках

Выбранный диапазон

Имя файла I:\Раздачи 3\Mike Oldfield_ Best of Mike Oldfield-Elements _1993_by ikatsuro.EW8A_\Mike Oldfield - The Best of Mike Oldfield-Elements.wav

Пиковый уровень 96.7 % Скорость извлечения 2.1 X Качество диапазона 100.0 % CRC теста 9B9F218D CRC копии 9B9F218D Копирование... OK

Ошибок не произошло

AccurateRip: сводка

Трек 1 : извлечено точно (доверие 19) [E37171F2] (AR v2)Трек 2 : извлечено точно (доверие 19) [2DDBE365] (AR v2)Трек 3 : извлечено точно (доверие 20) [37F4831A] (AR v2)Трек 4 : извлечено точно (доверие 19) [742A78C6] (AR v2)Трек 5 : извлечено точно (доверие 18) [99B4DB8D] (AR v2)Трек 6 : извлечено точно (доверие 19) [F98E43A3] (AR v2)Трек 7 : извлечено точно (доверие 20) [FE45F07D] (AR v2)Трек 8 : извлечено точно (доверие 19) [3677F347] (AR v2)Трек 9 : извлечено точно (доверие 19) [8BE15B61] (AR v2)Трек 10 : извлечено точно (доверие 19) [76EF3D48] (AR v2)Трек 11 : извлечено точно (доверие 19) [38BD5FD3] (AR v2)Трек 12 : извлечено точно (доверие 19) [8BAB4FD6] (AR v2)Трек 13 : извлечено точно (доверие 20) [48DC90BA] (AR v2)Трек 14 : извлечено точно (доверие 19) [68180EC8] (AR v2)Трек 15 : извлечено точно (доверие 19) [F28BA6E9] (AR v2)Трек 16 : извлечено точно (доверие 20) [05919CB5] (AR v2)

Все треки извлечены точно

Конец отчёта

==== Контрольная сумма отчёта 0859DD68E09F9039F831C3B9AD14910980FB6623EFE2CDB95B1CD40D95B11F0A ====
REM GENRE "Progressive Rock"REM DATE 1993REM DISCID CF0EDA10REM COMMENT "ExactAudioCopy v1.0b3"PERFORMER "Mike Oldfield"TITLE "The Best of Mike Oldfield-Elements "FILE "Mike Oldfield - The Best of Mike Oldfield-Elements.flac" WAVE TRACK 01 AUDIO TITLE "Tubular Bells (Opening Theme)" PERFORMER "Mike Oldfield" INDEX 00 00:00:00 INDEX 01 00:00:33 TRACK 02 AUDIO TITLE "Family Man" PERFORMER "Mike Oldfield" INDEX 00 04:17:08 INDEX 01 04:19:33 TRACK 03 AUDIO TITLE "Moonlight Shadow" PERFORMER "Mike Oldfield" INDEX 00 08:05:00 INDEX 01 08:05:05 TRACK 04 AUDIO TITLE "Heaven's Open" PERFORMER "Mike Oldfield" INDEX 00 11:40:38 INDEX 01 11:41:08 TRACK 05 AUDIO TITLE "Five Miles Out" PERFORMER "Mike Oldfield" INDEX 00 16:08:08 INDEX 01 16:08:15 TRACK 06 AUDIO TITLE "To France" PERFORMER "Mike Oldfield" INDEX 00 20:23:05 INDEX 01 20:23:58 TRACK 07 AUDIO TITLE "Foreign Affair" PERFORMER "Mike Oldfield" INDEX 00 25:06:00 INDEX 01 25:07:15 TRACK 08 AUDIO TITLE "In Dulci Jubilo" PERFORMER "Mike Oldfield" INDEX 00 29:00:53 INDEX 01 29:01:18 TRACK 09 AUDIO TITLE "Shadow On The Wall" PERFORMER "Mike Oldfield" INDEX 00 31:50:65 INDEX 01 31:51:73 TRACK 10 AUDIO TITLE "Islands" PERFORMER "Mike Oldfield" INDEX 00 36:59:03 INDEX 01 36:59:45 TRACK 11 AUDIO TITLE "Etude" PERFORMER "Mike Oldfield" INDEX 00 41:17:18 INDEX 01 41:17:28 TRACK 12 AUDIO TITLE "Sentinel" PERFORMER "Mike Oldfield" INDEX 00 44:23:48 INDEX 01 44:24:43 TRACK 13 AUDIO TITLE "Ommadawn (Excerpt)" PERFORMER "Mike Oldfield" INDEX 00 48:20:70 INDEX 01 48:20:73 TRACK 14 AUDIO TITLE "Incantations (Part Four) (Excerpt)" PERFORMER "Mike Oldfield" INDEX 00 51:59:20 INDEX 01 51:59:38 TRACK 15 AUDIO TITLE "Amarok (Excerpt)" PERFORMER "Mike Oldfield" INDEX 00 56:38:23 INDEX 01 56:38:68 TRACK 16 AUDIO TITLE "Portsmouth" PERFORMER "Mike Oldfield" INDEX 00 61:21:73 INDEX 01 61:22:35
AUDIOCHECKER v2.0 beta (build 457) - by Dester - <a href="mailto:opdester@freemail.hu" class="postLink">opdester@freemail.hu</a>~~~~~~~~~~~~~~~~~~~~~~~~~~~~~~~~~~

Начато: понедельник, 26. 11. 2012. - 21:18.24Найдено файлов: 1

1 -===- I:\Раздачи 3\Mike Oldfield_ Best of Mike Oldfield-Elements _1993_by ikatsuro.EW8A_\Mike Oldfield - The Best of Mike Oldfield-Elements.flac Извлечение успешно выполнено Заключение: этот трек - CDDA с вероятностью 100% Временный файл удалён.

Завершено: понедельник, 26. 11. 2012. - 21:33.28 (Время операции: 0:15.04)


Трекер:  [ 14-Дек-2012 11:11 ]

  

Скачать .torrent

Размер .torrent файла 34 KB


Размер: 404 MB
Хэш (hash) релиза: 8b5a191ec529961dec0bc0b86ada38f42a02a499

Еще никто не оставлял запись к записи скачать торрент Mike Oldfield - The Best of Mike Oldfield Elements - 1993, FLAC . Будь первым!

!Обратная связь