Скачать через торрент музыку Bryan Ferry - Boys And Girls бесплатно без регистрации torrent

Если у вас наблюдаются проблемы со скриншотами, переходом по ссылками, скачиванием торрентов - проблемы в блокировщике рекламы AdBlock. #хорошегоДня!


Статистика раздачи
Размер:  517 MB   |    Зарегистрирован:  4 года 8 месяцев   |    .torrent скачан:  31 раз   |   
Раздают:  1  
   
Загрузка...
 
Автор Сообщение

Galfimbul

avatar Galfimbul


Bryan Ferry - Boys And Girls Жанр: Pop Rock
Страна-производитель диска: EU
Год издания диска: 1999
Издатель (лейбл): Virgin
Номер по каталогу: 7243 8 47722 22
Страна: UK
Аудио кодек: FLAC (*.flac)
Тип рипа: image+.cue
Битрейт аудио: lossless
Продолжительность: 38:29
Источник (релизер): dafnaplus
Наличие сканов в содержимом раздачи: да
Трэклист:
01. Sensation 5:07
02. Slave To Love 4:26
03. Don't Stop The Dance 4:19
04. A Waste Land 1:01
05. Windswept 4:33
06. The Chosen One 4:52
07. Valentine 3:48
08. Stone Woman 4:57
09. Boys And Girls 5:26
Exact Audio Copy V1.0 beta 3 from 29. August 2011

EAC extraction logfile from 12. December 2012, 18:30

Bryan Ferry / Boys And Girls (7243 8 47722 22)

Used drive : PLEXTOR DVDR PX-891SA Adapter: 1 ID: 0

Read mode : SecureUtilize accurate stream : YesDefeat audio cache : YesMake use of C2 pointers : No

Read offset correction : 6Overread into Lead-In and Lead-Out : NoFill up missing offset samples with silence : YesDelete leading and trailing silent blocks : NoNull samples used in CRC calculations : YesUsed interface : Native Win32 interface for Win NT & 2000

Used output format : User Defined EncoderSelected bitrate : 1024 kBit/sQuality : HighAdd ID3 tag : NoCommand line compressor : C:\Program Files\Exact Audio Copy\Flac\flac.exeAdditional command line options : -V -8 -T "Genre=%genre%" -T "Artist=%artist%" -T "Title=%title%" -T "Album=%albumtitle%" -T "Date=%year%" -T "Tracknumber=%tracknr%" -T "Comment=%comment%" %source%

TOC of the extracted CD

Track | Start | Length | Start sector | End sector --------------------------------------------------------- 1 | 0:00.00 | 5:07.10 | 0 | 23034 2 | 5:07.10 | 4:26.25 | 23035 | 43009 3 | 9:33.35 | 4:19.27 | 43010 | 62461 4 | 13:52.62 | 1:00.58 | 62462 | 67019 5 | 14:53.45 | 4:33.35 | 67020 | 87529 6 | 19:27.05 | 4:51.40 | 87530 | 109394 7 | 24:18.45 | 3:47.67 | 109395 | 126486 8 | 28:06.37 | 4:56.55 | 126487 | 148741 9 | 33:03.17 | 5:25.60 | 148742 | 173176

Range status and errors

Selected range

Filename H:\dafnaplus\Bryan Ferry - Boys And Girls\Bryan Ferry - Boys And Girls (7243 8 47722 22).wav

Peak level 99.3 % Extraction speed 7.5 X Range quality 99.9 % Test CRC 48E95232 Copy CRC 48E95232 Copy OK

No errors occurred

AccurateRip summary

Track 1 accurately ripped (confidence 5) [453B3B2E] (AR v2)Track 2 accurately ripped (confidence 5) [708C0202] (AR v2)Track 3 accurately ripped (confidence 5) [2A2EE9E8] (AR v2)Track 4 accurately ripped (confidence 5) [BA8E637F] (AR v2)Track 5 accurately ripped (confidence 5) [2C7AB8C9] (AR v2)Track 6 accurately ripped (confidence 5) [8DC57C83] (AR v2)Track 7 accurately ripped (confidence 5) [8074F417] (AR v2)Track 8 accurately ripped (confidence 5) [2DD89D4B] (AR v2)Track 9 accurately ripped (confidence 5) [5D9B7064] (AR v2)

All tracks accurately ripped

End of status report

==== Log checksum 11C8128CED85DBA74BAADC632FF739D2DB156F54B8577000BC76EA8EFE1C2C57 ====


Трекер:  [ 14-Дек-2012 11:11 ]

  

Скачать .torrent

Размер .torrent файла 11 KB


Размер: 517 MB
Хэш (hash) релиза: 4bd5cf0f1030fb2bd95b643a27c7baf16345d9ef

Торренты, похожие на Bryan Ferry - Boys And Girls скачать торрент

Форум Название Автор Размер S L Добавлен
Rосk | Mеtаl | Аltеrnаtivе, Рunk, Indереndеnt (losslеss) ·· (Pop/Rock) Bryan Ferry -Boys and Girls - 1985 [Warner Bros. / EG, 9 25082-2, W. German Target], FLAC (tracks+.cue), lossless uzi2009 262004799250 MB 0 0 1325201531

02:32

30-Дек-11

Еще никто не оставлял запись к записи скачать торрент Bryan Ferry - Boys And Girls . Будь первым!

!Обратная связь