Скачать через торрент музыку Outlaws - So Low - 1999, APE бесплатно без регистрации torrent

Если у вас наблюдаются проблемы со скриншотами, переходом по ссылками, скачиванием торрентов - проблемы в блокировщике рекламы AdBlock. #хорошегоДня!


Статистика раздачи
Размер:  356 MB   |    Зарегистрирован:  4 года 8 месяцев   |    .torrent скачан:  20 раз   |   
Раздают:  1  
   
Загрузка...
 
Автор Сообщение

Galfimbul

avatar Galfimbul


Outlaws / So Low

Жанр: Southern Rock
Год издания: 1999
Аудиокодек: APE (*.ape)
Тип рипа: image+.cue
Битрейт аудио: lossless
Источник (релизер): emule
Наличие сканов в содержимом раздачи: да
Треклист:
01 Ghost Town 4:26
02 Three Alarm Fire 4:45
03 Only Love Will Do 3:19
04 South Street 3:57
05 Dancin' Shoes 4:30
06 Lovers, Gold and Fools 4:15
07 Mr. Cowboy 4:26
08 Hearts Run Wild 4:51
09 Surrounded By One 4:59
10 Lover's Serenade 4:14
11 A Wish 3:42
Exact Audio Copy V1.0 beta 2 from 29. April 2011

Отчёт EAC об извлечении, выполненном 23. ноября 2012, 18:14

The Outlaws / So Low

Дисковод: _NEC DV-5800C Adapter: 3 ID: 1

Режим чтения : Достоверность
Использование точного потока : Да
Отключение кэша аудио : Да
Использование указателей C2 : Нет

Коррекция смещения при чтении : 12
Способность читать области Lead-in и Lead-out : Нет
Заполнение пропущенных сэмплов тишиной : Да
Удаление блоков с тишиной в начале и конце : Нет
При вычислениях CRC использовались нулевые сэмплы : Нет
Интерфейс : Встроенный Win32-интерфейс для Win NT/2000

Выходной формат : Внутренние WAV-операции
Формат сэмплов : 44.100 Гц; 16 бит; стерео

TOC извлечённого CD

Трек | Старт | Длительность | Начальный сектор | Конечный сектор
---------------------------------------------------------------------
1 | 0:00.00 | 4:26.10 | 0 | 19959
2 | 4:26.10 | 4:45.52 | 19960 | 41386
3 | 9:11.62 | 3:19.17 | 41387 | 56328
4 | 12:31.04 | 3:57.05 | 56329 | 74108
5 | 16:28.09 | 4:30.31 | 74109 | 94389
6 | 20:58.40 | 4:15.61 | 94390 | 113575
7 | 25:14.26 | 4:26.41 | 113576 | 133566
8 | 29:40.67 | 4:51.62 | 133567 | 155453
9 | 34:32.54 | 4:59.73 | 155454 | 177951
10 | 39:32.52 | 4:14.27 | 177952 | 197028
11 | 43:47.04 | 3:42.01 | 197029 | 213679

Характеристики диапазона извлечения и сообщения об ошибках

Выбранный диапазон

Имя файла D:\The Outlaws - So Low.wav

Пиковый уровень 99.2 %
Скорость извлечения 7.5 X
Качество диапазона 100.0 %
CRC копии 180964F8
Копирование... OK

Ошибок не произошло

AccurateRip: сводка

Трек 1 : извлечено точно (доверие 2) [336DCE8C] (AR v1)
Трек 2 : извлечено точно (доверие 2) [ED55DD80] (AR v1)
Трек 3 : извлечено точно (доверие 2) [DAF42B0A] (AR v1)
Трек 4 : извлечено точно (доверие 2) [06BD4D98] (AR v1)
Трек 5 : извлечено точно (доверие 2) [443428F5] (AR v1)
Трек 6 : извлечено точно (доверие 2) [91B3FD9C] (AR v1)
Трек 7 : извлечено точно (доверие 2) [7C39F7E0] (AR v1)
Трек 8 : извлечено точно (доверие 2) [81F8B3AF] (AR v1)
Трек 9 : извлечено точно (доверие 2) [772D39B8] (AR v1)
Трек 10 : извлечено точно (доверие 2) [E083CEF2] (AR v1)
Трек 11 : извлечено точно (доверие 2) [9AC1E0B4] (AR v1)

Все треки извлечены точно

Конец отчёта
REM GENRE "Southern Rock"
REM DATE 1999
REM DISCID 980B210B
REM COMMENT "ExactAudioCopy v1.0b2"
PERFORMER "The Outlaws"
TITLE "So Low"
FILE "The Outlaws - So Low.wav" WAVE
TRACK 01 AUDIO
TITLE "Ghost Town"
PERFORMER "The Outlaws"
INDEX 01 00:00:00
TRACK 02 AUDIO
TITLE "Three Alarm Fire"
PERFORMER "The Outlaws"
INDEX 01 04:26:10
TRACK 03 AUDIO
TITLE "Only Love Will Do"
PERFORMER "The Outlaws"
INDEX 00 09:11:05
INDEX 01 09:11:62
TRACK 04 AUDIO
TITLE "South Street"
PERFORMER "The Outlaws"
INDEX 00 12:30:22
INDEX 01 12:31:04
TRACK 05 AUDIO
TITLE "Dancin' Shoes"
PERFORMER "The Outlaws"
INDEX 00 16:27:27
INDEX 01 16:28:09
TRACK 06 AUDIO
TITLE "Lovers, Gold and Fools"
PERFORMER "The Outlaws"
INDEX 00 20:57:58
INDEX 01 20:58:40
TRACK 07 AUDIO
TITLE "Mr. Cowboy"
PERFORMER "The Outlaws"
INDEX 00 25:13:44
INDEX 01 25:14:26
TRACK 08 AUDIO
TITLE "Hearts Run Wild"
PERFORMER "The Outlaws"
INDEX 00 29:40:10
INDEX 01 29:40:67
TRACK 09 AUDIO
TITLE "Surrounded By One"
PERFORMER "The Outlaws"
INDEX 00 34:31:72
INDEX 01 34:32:54
TRACK 10 AUDIO
TITLE "Lover's Serenade"
PERFORMER "The Outlaws"
INDEX 00 39:31:70
INDEX 01 39:32:52
TRACK 11 AUDIO
TITLE "A Wish"
PERFORMER "The Outlaws"
INDEX 00 43:46:22
INDEX 01 43:47:04
-----------------------

DON'T MODIFY THIS FILE

-----------------------

PERFORMER: auCDtect Task Manager, ver. 1.5.1RC6 build 1.5.1.7
Copyright (c) 2008-2010 y-soft. All rights reserved
http://y-soft.org

ANALYZER: auCDtect: CD records authenticity detector, version 0.8.2
Copyright (c) 2004 Oleg Berngardt. All rights reserved.
Copyright (c) 2004 Alexander Djourik. All rights reserved.

FILE: The Outlaws - So Low.ape
Size: 371730144 Hash: D699F0F22430F5DCB6BBB81F81D7546B Accuracy: -m0
Conclusion: CDDA 100%
Signature: 7DDD88ADA9FBC063CFC3397E89FE1C3C75DC1EE0


Трекер:  [ 14-Дек-2012 11:11 ]

  

Скачать .torrent

Размер .torrent файла 14 KB


Размер: 356 MB
Хэш (hash) релиза: 686adb3d0a34ca81932923b888b00fe813d41e9e

Еще никто не оставлял запись к записи скачать торрент Outlaws - So Low - 1999, APE . Будь первым!

!Обратная связь