Скачать через торрент музыку Outlaws - Lady In Waiting - 1976, APE бесплатно без регистрации torrent

Если у вас наблюдаются проблемы со скриншотами, переходом по ссылками, скачиванием торрентов - проблемы в блокировщике рекламы AdBlock. #хорошегоДня!


Статистика раздачи
Размер:  244 MB   |    Зарегистрирован:  4 года 10 месяцев   |    .torrent скачан:  11 раз   |   
Раздают:  1  
   
Загрузка...
 
Автор Сообщение

Galfimbul

avatar Galfimbul


Outlaws / Lady In Waiting

Жанр: Southern Rock
Год издания: 1976
Аудиокодек: APE (*.ape)
Тип рипа: image+.cue
Битрейт аудио: lossless
Источник (релизер): emule
Наличие сканов в содержимом раздачи: да
Треклист:
01 Breaker Breaker 2:59
02 South Carolina 3:05
03 Ain't So Bad 3:48
04 Freeborn Man 4:51
05 Girl From Ohio 5:02
06 Lover Boy 3:58
07 Just For You 3:17
08 Prisoner 3:58
09 Stick Around For Rock & Roll 6:35
Exact Audio Copy V1.0 beta 2 from 29. April 2011

Отчёт EAC об извлечении, выполненном 22. января 2012, 15:33

OUTLAWS / LADY IN WAITING (REMASTERED)

Дисковод: _NEC DV-5800C Adapter: 3 ID: 1

Режим чтения : Достоверность
Использование точного потока : Да
Отключение кэша аудио : Да
Использование указателей C2 : Нет

Коррекция смещения при чтении : 12
Способность читать области Lead-in и Lead-out : Нет
Заполнение пропущенных сэмплов тишиной : Да
Удаление блоков с тишиной в начале и конце : Нет
При вычислениях CRC использовались нулевые сэмплы : Нет
Интерфейс : Встроенный Win32-интерфейс для Win NT/2000

Выходной формат : Внутренние WAV-операции
Формат сэмплов : 44.100 Гц; 16 бит; стерео

TOC извлечённого CD

Трек | Старт | Длительность | Начальный сектор | Конечный сектор
---------------------------------------------------------------------
1 | 0:00.00 | 2:59.50 | 0 | 13474
2 | 2:59.50 | 3:05.60 | 13475 | 27409
3 | 6:05.35 | 3:48.52 | 27410 | 44561
4 | 9:54.12 | 4:51.35 | 44562 | 66421
5 | 14:45.47 | 5:02.55 | 66422 | 89126
6 | 19:48.27 | 3:58.48 | 89127 | 107024
7 | 23:47.00 | 3:17.27 | 107025 | 121826
8 | 27:04.27 | 3:58.13 | 121827 | 139689
9 | 31:02.40 | 6:35.65 | 139690 | 169379

Характеристики диапазона извлечения и сообщения об ошибках

Выбранный диапазон

Имя файла D:\OUTLAWS - LADY IN WAITING (REMASTERED).wav

Пиковый уровень 100.0 %
Скорость извлечения 5.8 X
Качество диапазона 100.0 %
CRC копии 0FCC6C7E
Копирование... OK

Ошибок не произошло

AccurateRip: сводка

Трек 1 : извлечено точно (доверие 2) [2F7BD9B6] (AR v2)
Трек 2 : извлечено точно (доверие 2) [43E70088] (AR v1)
Трек 3 : извлечено точно (доверие 2) [7BCE0F98] (AR v1)
Трек 4 : извлечено точно (доверие 2) [EDE8413D] (AR v2)
Трек 5 : извлечено точно (доверие 2) [776E2FDF] (AR v1)
Трек 6 : извлечено точно (доверие 2) [EA8C9DEB] (AR v2)
Трек 7 : извлечено точно (доверие 2) [58911D2F] (AR v2)
Трек 8 : извлечено точно (доверие 2) [4EA8B32A] (AR v1)
Трек 9 : извлечено точно (доверие 2) [BE7E059A] (AR v2)

Все треки извлечены точно

Конец отчёта
REM GENRE "Southern Rock"
REM DATE 1976
REM DISCID 8408D209
REM COMMENT "ExactAudioCopy v1.0b2"
PERFORMER "OUTLAWS"
TITLE "LADY IN WAITING (REMASTERED)"
FILE "OUTLAWS - LADY IN WAITING (REMASTERED).wav" WAVE
TRACK 01 AUDIO
TITLE "Breaker Breaker"
PERFORMER "OUTLAWS"
INDEX 01 00:00:00
TRACK 02 AUDIO
TITLE "South Carolina"
PERFORMER "OUTLAWS"
INDEX 01 02:59:50
TRACK 03 AUDIO
TITLE "Ain't So Bad"
PERFORMER "OUTLAWS"
INDEX 01 06:05:35
TRACK 04 AUDIO
TITLE "Freeborn Man"
PERFORMER "OUTLAWS"
INDEX 01 09:54:12
TRACK 05 AUDIO
TITLE "Girl From Ohio"
PERFORMER "OUTLAWS"
INDEX 01 14:45:47
TRACK 06 AUDIO
TITLE "Lover Boy"
PERFORMER "OUTLAWS"
INDEX 01 19:48:27
TRACK 07 AUDIO
TITLE "Just For You"
PERFORMER "OUTLAWS"
INDEX 01 23:47:00
TRACK 08 AUDIO
TITLE "Prisoner"
PERFORMER "OUTLAWS"
INDEX 01 27:04:27
TRACK 09 AUDIO
TITLE "Stick Around For Rock & Roll"
PERFORMER "OUTLAWS"
INDEX 01 31:02:40
-----------------------

DON'T MODIFY THIS FILE

-----------------------

PERFORMER: auCDtect Task Manager, ver. 1.5.1RC6 build 1.5.1.7
Copyright (c) 2008-2010 y-soft. All rights reserved
http://y-soft.org

ANALYZER: auCDtect: CD records authenticity detector, version 0.8.2
Copyright (c) 2004 Oleg Berngardt. All rights reserved.
Copyright (c) 2004 Alexander Djourik. All rights reserved.

FILE: OUTLAWS - LADY IN WAITING (REMASTERED).ape
Size: 251764816 Hash: 17A27CD891262AACBC5F2B1706D4B352 Accuracy: -m0
Conclusion: CDDA 100%
Signature: 9130D47CC642AC0771C29E34151A452AF574A7EF


Трекер:  [ 14-Дек-2012 11:11 ]

  

Скачать .torrent

Размер .torrent файла 20 KB


Размер: 244 MB
Хэш (hash) релиза: 90a7595c376526176c9d803c0a7382a131528808

Еще никто не оставлял запись к записи скачать торрент Outlaws - Lady In Waiting - 1976, APE . Будь первым!

!Обратная связь