Скачать через торрент музыку Cheezboy - Cheezboy - 1989, APE бесплатно без регистрации torrent

Если у вас наблюдаются проблемы со скриншотами, переходом по ссылками, скачиванием торрентов - проблемы в блокировщике рекламы AdBlock. #хорошегоДня!


Статистика раздачи
Размер:  214 MB   |    Зарегистрирован:  4 года 10 месяцев   |    .torrent скачан:  15 раз   |   
Раздают:  1  
   
Загрузка...
 
Автор Сообщение

Galfimbul

avatar Galfimbul


Cheezboy / Cheezboy

Жанр: sleaze/glam
Страна-производитель диска: USA
Год издания: 1989
Издатель (лейбл): Posh Boy
Номер по каталогу: PBCD 88157-2
Страна: USA
Аудиокодек: APE (*.ape)
Тип рипа: image+.cue
Битрейт аудио: lossless
Источник (релизер): свой рипъ
Наличие сканов в содержимом раздачи: нет
Треклист:
01. The Letter
02. Beer N' A Cigarette
03. Too Young to Touch
04. Set You Free
05. 44 Gun
06. Too Far From Home
07. Gifthorse
08. 18 Wheels
09. Wanna Ride?
10. In and Outta Love
Exact Audio Copy V0.99 prebeta 4 from 23. January 2008

EAC extraction logfile from 10. December 2012, 20:53

Cheezboy / Cheezboy

Used drive : PIONEER DVD-RW DVR-212 Adapter: 5 ID: 0

Read mode : SecureUtilize accurate stream : YesDefeat audio cache : YesMake use of C2 pointers : No

Read offset correction : 48Overread into Lead-In and Lead-Out : NoFill up missing offset samples with silence : YesDelete leading and trailing silent blocks : NoNull samples used in CRC calculations : YesUsed interface : Native Win32 interface for Win NT & 2000

Used output format : Internal WAV RoutinesSample format : 44.100 Hz; 16 Bit; Stereo

TOC of the extracted CD

Track | Start | Length | Start sector | End sector --------------------------------------------------------- 1 | 0:00.00 | 2:20.12 | 0 | 10511 2 | 2:20.12 | 4:07.45 | 10512 | 29081 3 | 6:27.57 | 3:41.33 | 29082 | 45689 4 | 10:09.15 | 2:36.55 | 45690 | 57444 5 | 12:45.70 | 4:00.65 | 57445 | 75509 6 | 16:46.60 | 3:39.57 | 75510 | 91991 7 | 20:26.42 | 3:06.65 | 91992 | 106006 8 | 23:33.32 | 2:42.03 | 106007 | 118159 9 | 26:15.35 | 4:00.57 | 118160 | 136216 10 | 30:16.17 | 3:47.08 | 136217 | 153249

Range status and errors

Selected range

Filename D:\temp\Cheezboy - Cheezboy.wav

Peak level 90.2 % Range quality 100.0 % Copy CRC AA85A4FA Copy OK

No errors occurred

AccurateRip summary

Track 1 not present in databaseTrack 2 not present in databaseTrack 3 not present in databaseTrack 4 not present in databaseTrack 5 not present in databaseTrack 6 not present in databaseTrack 7 not present in databaseTrack 8 not present in databaseTrack 9 not present in databaseTrack 10 not present in database

None of the tracks are present in the AccurateRip database

End of status report


Трекер:  [ 14-Дек-2012 11:11 ]

  

Скачать .torrent

Размер .torrent файла 34 KB


Размер: 214 MB
Хэш (hash) релиза: a3e1777564897b19b51f52206c757f207b220a2d

Еще никто не оставлял запись к записи скачать торрент Cheezboy - Cheezboy - 1989, APE . Будь первым!

!Обратная связь