Скачать через торрент музыку Led Zeppelin 1969-Led Zeppelin II бесплатно без регистрации torrent

Если у вас наблюдаются проблемы со скриншотами, переходом по ссылками, скачиванием торрентов - проблемы в блокировщике рекламы AdBlock. #хорошегоДня!


Статистика раздачи
Размер:  237 MB   |    Зарегистрирован:  4 года 11 месяцев   |    .torrent скачан:  31 раз   |   
Раздают:  1  
   
Загрузка...
 
Автор Сообщение

Galfimbul

avatar Galfimbul


Led Zeppelin II
[CD 19127, Canada, Original Press]

Жанр: Classic Hard Rock
Страна исполнителя: United Kingdom
Страна-производитель диска: Canada
Год выхода альбома / издания диска: 1969 / 1990(?)
Издатель (лейбл): Atlantic
Made By: Cinram
Номер по каталогу: CD 19127
Аудио кодек: FLAC (*.flac)
Тип рипа: image+.cue
Битрейт аудио: lossless
Продолжительность: 41:37
Источник (релизер): Alexandre ZAM (NetLab)
Наличие сканов в содержимом раздачи: только диск
01. Whole Lotta Love (5:34)
02. What Is And What Should Never Be (4:48)
03. The Lemon Song (6:19)
04. Thank You (4:48)
05. Heartbreaker (4:14)
06. Living Loving Maid (She's Just A Woman) (2:39)
07. Ramble On (4:35)
08. Moby Dick (4:21)
09. Bring It On Home (4:20)
Exact Audio Copy V1.0 beta 3 from 29. August 2011

EAC extraction logfile from 25. November 2012, 20:38

Led Zeppelin / Led Zeppelin II

Used drive : TSSTcorpCDDVDW TS-H653B Adapter: 0 ID: 0

Read mode : SecureUtilize accurate stream : YesDefeat audio cache : YesMake use of C2 pointers : No

Read offset correction : 6Overread into Lead-In and Lead-Out : NoFill up missing offset samples with silence : YesDelete leading and trailing silent blocks : NoNull samples used in CRC calculations : YesUsed interface : Native Win32 interface for Win NT & 2000

Used output format : User Defined EncoderSelected bitrate : 896 kBit/sQuality : HighAdd ID3 tag : NoCommand line compressor : C:\Program Files (x86)\Exact Audio Copy\wavpack.exeAdditional command line options : -hm %source% %dest%

TOC of the extracted CD

Track | Start | Length | Start sector | End sector --------------------------------------------------------- 1 | 0:00.00 | 5:34.17 | 0 | 25066 2 | 5:34.17 | 4:48.00 | 25067 | 46666 3 | 10:22.17 | 6:18.73 | 46667 | 75089 4 | 16:41.15 | 4:47.60 | 75090 | 96674 5 | 21:29.00 | 4:13.60 | 96675 | 115709 6 | 25:42.60 | 2:39.10 | 115710 | 127644 7 | 28:21.70 | 4:35.37 | 127645 | 148306 8 | 32:57.32 | 4:20.48 | 148307 | 167854 9 | 37:18.05 | 4:19.65 | 167855 | 187344

Range status and errors

Selected range

Filename G:\NL[ZAM]\LZ\Led Zeppelin - Led Zeppelin II.wav

Peak level 95.2 % Extraction speed 6.4 X Range quality 99.9 % Test CRC 75F7D5EF Copy CRC 75F7D5EF Copy OK

No errors occurred

AccurateRip summary

Track 1 accurately ripped (confidence 5) [E0573ED2] (AR v1)Track 2 accurately ripped (confidence 5) [6BAA7C63] (AR v1)Track 3 accurately ripped (confidence 6) [44198504] (AR v1)Track 4 accurately ripped (confidence 6) [0F6BE8CE] (AR v1)Track 5 accurately ripped (confidence 6) [1CD0A4F1] (AR v1)Track 6 accurately ripped (confidence 6) [D83F34A1] (AR v1)Track 7 accurately ripped (confidence 5) [4B57D440] (AR v1)Track 8 accurately ripped (confidence 6) [CD940518] (AR v1)Track 9 accurately ripped (confidence 5) [ADE6A38E] (AR v1)

All tracks accurately ripped

End of status report

---- CUETools DB Plugin V2.1.3

[CTDB TOCID: XjZIlAn3kHx8lxUPgjT04GGmw0o-] found, Submit result: XjZIlAn3kHx8lxUPgjT04GGmw0o- has been confirmed[19e297ff] (30/32) Accurately ripped[69874afc] (02/32) Differs in 8 samples @07:43:54,08:45:72,10:00:70You can use CUETools to repair this rip.
REM GENRE "Rock"REM DATE 1969REM DISCID 6609C109REM COMMENT "ExactAudioCopy v1.0b3"PERFORMER "Led Zeppelin"TITLE "Led Zeppelin II"FILE "Led Zeppelin - Led Zeppelin II.flac" WAVE TRACK 01 AUDIO TITLE "Whole Lotta Love" PERFORMER "Led Zeppelin" INDEX 01 00:00:00 TRACK 02 AUDIO TITLE "What Is And What Should Never Be" PERFORMER "Led Zeppelin" INDEX 00 05:33:17 INDEX 01 05:34:17 TRACK 03 AUDIO TITLE "The Lemon Song" PERFORMER "Led Zeppelin" INDEX 00 10:20:17 INDEX 01 10:22:17 TRACK 04 AUDIO TITLE "Thank You" PERFORMER "Led Zeppelin" INDEX 01 16:41:15 TRACK 05 AUDIO TITLE "Heartbreaker" PERFORMER "Led Zeppelin" INDEX 00 21:28:55 INDEX 01 21:29:00 TRACK 06 AUDIO TITLE "Living Loving Maid (She's Just A Woman)" PERFORMER "Led Zeppelin" INDEX 01 25:42:60 TRACK 07 AUDIO TITLE "Ramble On" PERFORMER "Led Zeppelin" INDEX 01 28:21:70 TRACK 08 AUDIO TITLE "Moby Dick" PERFORMER "Led Zeppelin" INDEX 00 32:56:45 INDEX 01 32:57:32 TRACK 09 AUDIO TITLE "Bring It On Home" PERFORMER "Led Zeppelin" INDEX 01 37:18:05
[CUETools log; Date: 11.12.2012 14:50:53; Version: 2.1.4][CTDB TOCID: XjZIlAn3kHx8lxUPgjT04GGmw0o-] found.Track | CTDB Status 1 | (6/6) Accurately ripped 2 | (4/6) Accurately ripped, or (2/6) differs in 8 samples @02:09:37,03:11:55,04:26:53 3 | (6/6) Accurately ripped 4 | (6/6) Accurately ripped 5 | (6/6) Accurately ripped 6 | (6/6) Accurately ripped 7 | (6/6) Accurately ripped 8 | (6/6) Accurately ripped 9 | (6/6) Accurately ripped[AccurateRip ID: 000f1c99-006cd457-6609c109] found.Track [ CRC | V2 ] Status 01 [e0573ed2|cccbaf95] (05+00/51) Accurately ripped 02 [6baa7c63|e48d7338] (05+00/50) Accurately ripped 03 [44198504|e41dae3c] (06+00/52) Accurately ripped 04 [0f6be8ce|b1d71431] (06+00/51) Accurately ripped 05 [1cd0a4f1|8967eec5] (06+00/51) Accurately ripped 06 [d83f34a1|2b0ec92b] (06+00/53) Accurately ripped 07 [4b57d440|6b28b437] (05+00/51) Accurately ripped 08 [cd940518|e0ec729a] (06+00/52) Accurately ripped 09 [ade6a38e|c715e216] (05+00/49) Accurately rippedOffsetted by 91: 01 [b2cd8652] (08/51) Accurately ripped 02 [239a1918] (08/50) Accurately ripped 03 [ca444e6b] (08/52) Accurately ripped 04 [09192031] (08/51) Accurately ripped 05 [d2e9275d] (08/51) Accurately ripped 06 [2293ac3b] (09/53) Accurately ripped 07 [a99df8bb] (09/51) Accurately ripped 08 [85131c2b] (09/52) Accurately ripped 09 [1916816d] (08/49) Accurately rippedOffsetted by 122: 01 [ce3cba67] (02/51) Accurately ripped 02 [20cce63c] (02/50) Accurately ripped 03 [4a2c60ec] (02/52) Accurately ripped 04 [755a5972] (02/51) Accurately ripped 05 [fd6af7dc] (02/51) Accurately ripped 06 [a930399b] (02/53) Accurately ripped 07 [ff0f6b66] (02/51) Accurately ripped 08 [f863a53a] (02/52) Accurately ripped 09 [84f988e3] (02/49) Accurately rippedOffsetted by 162: 01 [4b307aad] (08/51) Accurately ripped 02 [a1fb68fa] (08/50) Accurately ripped 03 [1089278f] (08/52) Accurately ripped 04 [8ddb1987] (08/51) Accurately ripped 05 [7272c04c] (08/51) Accurately ripped 06 [0f791b05] (08/53) Accurately ripped 07 [f8c21e01] (08/51) Accurately ripped 08 [2f6ec9d3] (08/52) Accurately ripped 09 [81f41a85] (07/49) Accurately rippedOffsetted by 347: 01 [d004dad0] (20/51) Accurately ripped 02 [f630889e] (19/50) Accurately ripped 03 [ec6ea87f] (20/52) Accurately ripped 04 [b53389c5] (19/51) Accurately ripped 05 [923ef1e0] (19/51) Accurately ripped 06 [db4b2c01] (20/53) Accurately ripped 07 [6f9ae21f] (19/51) Accurately ripped 08 [c7b52007] (19/52) Accurately ripped 09 [58b03f0b] (19/49) Accurately rippedOffsetted by 263: 01 [d2ec9eb0] (02/51) Accurately ripped 02 [819a05f2] (00/50) No match (V2 was not tested) 03 [1e43e15f] (02/52) Accurately ripped 04 [0f4edb81] (02/51) Accurately ripped 05 [29271a1d] (02/51) Accurately ripped 06 [576ab3d0] (02/53) Accurately ripped 07 [39bc18cd] (02/51) Accurately ripped 08 [7c3fcac3] (02/52) Accurately ripped 09 [2441afe9] (02/49) Accurately ripped

Track Peak [ CRC32 ] [W/O NULL] [ LOG ] -- 95,2 [75F7D5EF] [3E00F335] CRC32 01 95,2 [EC2A8343] [FE5F7B57] 02 78,8 [C5A8DD1C] [91784C3F] 03 81,9 [C4C484B7] [DA466FD5] 04 60,2 [0E1B10DC] [AE563D5E] 05 88,6 [822AA53C] [9620E5A6] 06 66,1 [7E979ABA] [02FE6E58] 07 69,5 [EA4FCAF4] [29F9DA33] 08 66,3 [0C71C870] [0DF6134A] 09 70,0 [BF24D9AA] [F85D9DE2]
foobar2000 1.1.1 / Dynamic Range Meter 1.1.1log date: 2012-12-11 14:49:34

--------------------------------------------------------------------------------Analyzed: Led Zeppelin / Led Zeppelin II--------------------------------------------------------------------------------

DR Peak RMS Duration Track--------------------------------------------------------------------------------DR11 -0.42 dB -16.52 dB 5:34 01-Whole Lotta LoveDR11 -2.06 dB -17.73 dB 4:48 02-What Is And What Should Never BeDR11 -1.73 dB -16.23 dB 6:19 03-The Lemon SongDR11 -4.39 dB -20.37 dB 4:48 04-Thank YouDR11 -1.05 dB -15.24 dB 4:14 05-HeartbreakerDR11 -3.59 dB -16.00 dB 2:39 06-Living Loving Maid (She's Just A Woman)DR12 -3.16 dB -18.55 dB 4:35 07-Ramble OnDR11 -3.57 dB -18.08 dB 4:21 08-Moby DickDR12 -3.09 dB -17.57 dB 4:20 09-Bring It On Home--------------------------------------------------------------------------------

Number of tracks: 9Official DR value: DR11

Samplerate: 44100 HzChannels: 2Bits per sample: 16Bitrate: 773 kbpsCodec: FLAC

Robert Plant: lead vocals, harmonica
Jimmy Page: electric guitar, acoustic guitar, backing vocals, theremin
John Paul Jones: bass guitar, organ, backing vocals
John Bonham: drums, timpani, backing vocals

Barry Diament: CD Mastering
Огромное спасибо автору рипа за раритет!


Трекер:  [ 14-Дек-2012 11:10 ]

  

Скачать .torrent

Размер .torrent файла 19 KB


Размер: 237 MB
Хэш (hash) релиза: 030bfbdae2a7eca4c717ad2e1d809ee8e4be011c

Торренты, похожие на Led Zeppelin 1969-Led Zeppelin II скачать торрент

Форум Название Автор Размер S L Добавлен
Rосk | Mеtаl | Аltеrnаtivе, Рunk, Indереndеnt (losslеss) ·· (Hard Rock) Led Zeppelin - Led Zeppelin - II 1969 (Atlantic 240 037,19127-2,WE835) - 1990, FLAC (image+.cue) lossless Galfimbul 357479001341 MB 0 0 1297876547

20:15

16-Фев-11

Rосk | Mеtаl | Аltеrnаtivе, Рunk, Indереndеnt (losslеss) ·· (Hard Rock) Led Zeppelin-1969 Led Zeppelin II (Japan 2nd Pressing 20P2-2024) - 1988, FLAC (tracks+.cue), lossless Galfimbul 269724182257 MB 0 0 1297875570

19:59

16-Фев-11

Еще никто не оставлял запись к записи скачать торрент Led Zeppelin 1969-Led Zeppelin II . Будь первым!

!Обратная связь