Скачать через торрент музыку Tigertailz - Thrill Pistol бесплатно без регистрации torrent

Если у вас наблюдаются проблемы со скриншотами, переходом по ссылками, скачиванием торрентов - проблемы в блокировщике рекламы AdBlock. #хорошегоДня!


Статистика раздачи
Размер:  577 MB   |    Зарегистрирован:  4 года 8 месяцев   |    .torrent скачан:  16 раз   |   
Раздают:  1  
   
Загрузка...
 
Автор Сообщение

Galfimbul

avatar Galfimbul


Tigertailz / Thrill Pistol (2CD)

Жанр: Hard Rock, Glam Metal
Страна-производитель диска: USA
Год издания: 2007
Издатель (лейбл): Sanctuary Records
Номер по каталогу: 02182-36311-2
Страна: U.K. (Wales)
Аудиокодек: FLAC (*.flac)
Тип рипа: image+.cue
Битрейт аудио: lossless
Продолжительность: 0:37:08 + 0:43:07
Источник (релизер): Собственный рип
Наличие сканов в содержимом раздачи: нет
Треклист:
CD1
"Thrill Pistol"
1. Brain The Sucker 4:10
2. Long Live The New Flesh 3:53
3. Twisted 3:05
4. Thrill Pistol 5:07
5. Milez Away 4:21
6. Natural Born Animal 4:00
7. Only You 3:41
8. Tongwynlais Fly 1:21
9. Hanging By The Heelz 3:21
10. Serpent Queen 4:01
37:08

CD2
"U.S. Wazbonez 92" (previously unreleased bonus disc)
1. TYFHO 3:50
2. Wazbonez 3:41
3. Make Me Bleed 6:00
4. Dirty Needlez 4:13
5. I Believe 5:26
6. Love Junkie 3:37
7. One Beat Of Your Heart 4:06
8. Show Me 3:15
9. Love Can Kill 4:22
10. The Final Solution 4:43
43:07
CD1Exact Audio Copy V1.0 beta 3 from 29. August 2011

EAC extraction logfile from 10. December 2012, 17:08

Tigertailz / Thrill Pistol

Used drive : Optiarc DVD RW AD-7280S Adapter: 0 ID: 2

Read mode : SecureUtilize accurate stream : YesDefeat audio cache : YesMake use of C2 pointers : No

Read offset correction : 48Overread into Lead-In and Lead-Out : NoFill up missing offset samples with silence : YesDelete leading and trailing silent blocks : NoNull samples used in CRC calculations : YesUsed interface : Native Win32 interface for Win NT & 2000

Used output format : User Defined EncoderSelected bitrate : 128 kBit/sQuality : HighAdd ID3 tag : NoCommand line compressor : C:\Program Files\Exact Audio Copy\Flac\flac.exeAdditional command line options : -V -8 -T "Date=%year%" -T "Genre=%genre%" %source%

TOC of the extracted CD

Track | Start | Length | Start sector | End sector --------------------------------------------------------- 1 | 0:00.00 | 4:10.30 | 0 | 18779 2 | 4:10.30 | 3:54.00 | 18780 | 36329 3 | 8:04.30 | 3:05.65 | 36330 | 50269 4 | 11:10.20 | 5:09.15 | 50270 | 73459 5 | 16:19.35 | 4:20.19 | 73460 | 92978 6 | 20:39.54 | 4:00.44 | 92979 | 111022 7 | 24:40.23 | 3:41.46 | 111023 | 127643 8 | 28:21.69 | 1:22.01 | 127644 | 133794 9 | 29:43.70 | 3:21.17 | 133795 | 148886 10 | 33:05.12 | 4:03.09 | 148887 | 167120

Range status and errors

Selected range

Filename D:\CD Rips\Tigertailz - 2007 - Thrill Pistol (2CD)\Tigertailz - Thrill Pistol.wav

Peak level 97.7 % Extraction speed 3.6 X Range quality 100.0 % Test CRC 073D57AE Copy CRC 073D57AE Copy OK

No errors occurred

AccurateRip summary

Track 1 accurately ripped (confidence 3) [E2796396] (AR v1)Track 2 accurately ripped (confidence 3) [9A82D6F4] (AR v1)Track 3 accurately ripped (confidence 3) [4512DC82] (AR v1)Track 4 accurately ripped (confidence 3) [95E4B8B3] (AR v1)Track 5 accurately ripped (confidence 3) [6A77F1D5] (AR v1)Track 6 accurately ripped (confidence 3) [77E34256] (AR v1)Track 7 accurately ripped (confidence 3) [CF25B473] (AR v1)Track 8 accurately ripped (confidence 3) [9CF40A4E] (AR v1)Track 9 accurately ripped (confidence 3) [9432515C] (AR v1)Track 10 accurately ripped (confidence 3) [F4D30A8F] (AR v1)

All tracks accurately ripped

End of status report

==== Log checksum F21D3AEFD9ED1F97C8CC7F7F2791F6F15370F02853F343A93B396B6577E3E74E ====
Exact Audio Copy V1.0 beta 3 from 29. August 2011

EAC extraction logfile from 10. December 2012, 17:38

Tigertailz / Thrill Pistol (CD2)

Used drive : Optiarc DVD RW AD-7280S Adapter: 0 ID: 2

Read mode : SecureUtilize accurate stream : YesDefeat audio cache : YesMake use of C2 pointers : No

Read offset correction : 48Overread into Lead-In and Lead-Out : NoFill up missing offset samples with silence : YesDelete leading and trailing silent blocks : NoNull samples used in CRC calculations : YesUsed interface : Native Win32 interface for Win NT & 2000

Used output format : User Defined EncoderSelected bitrate : 128 kBit/sQuality : HighAdd ID3 tag : NoCommand line compressor : C:\Program Files\Exact Audio Copy\Flac\flac.exeAdditional command line options : -V -8 -T "Date=%year%" -T "Genre=%genre%" %source%

TOC of the extracted CD

Track | Start | Length | Start sector | End sector --------------------------------------------------------- 1 | 0:00.00 | 3:50.41 | 0 | 17290 2 | 3:50.41 | 3:39.43 | 17291 | 33758 3 | 7:30.09 | 5:59.39 | 33759 | 60722 4 | 13:29.48 | 4:08.36 | 60723 | 79358 5 | 17:38.09 | 5:19.72 | 79359 | 103355 6 | 22:58.06 | 3:39.07 | 103356 | 119787 7 | 26:37.13 | 4:04.36 | 119788 | 138123 8 | 30:41.49 | 3:15.11 | 138124 | 152759 9 | 33:56.60 | 4:25.41 | 152760 | 172675 10 | 38:22.26 | 4:45.09 | 172676 | 194059

Range status and errors

Selected range

Filename D:\CD Rips\Tigertailz - 2007 - Thrill Pistol (2CD)\Tigertailz - Thrill Pistol (CD2).wav

Peak level 97.7 % Extraction speed 3.7 X Range quality 100.0 % Test CRC C64B86E4 Copy CRC C64B86E4 Copy OK

No errors occurred

AccurateRip summary

Track 1 accurately ripped (confidence 5) [B821E184] (AR v1)Track 2 accurately ripped (confidence 5) [1CCFB112] (AR v1)Track 3 accurately ripped (confidence 5) [66CC5708] (AR v1)Track 4 accurately ripped (confidence 5) [13590DF7] (AR v1)Track 5 accurately ripped (confidence 5) [9A8B29C2] (AR v1)Track 6 accurately ripped (confidence 5) [0802E417] (AR v1)Track 7 accurately ripped (confidence 5) [91CDFFB6] (AR v1)Track 8 accurately ripped (confidence 5) [90556E60] (AR v1)Track 9 accurately ripped (confidence 5) [34ABA9C2] (AR v1)Track 10 accurately ripped (confidence 5) [17E67F3D] (AR v1)

All tracks accurately ripped

End of status report

==== Log checksum 10401A02BF31DF18598ED2E46B02526B483E6E788BC973AD52048925CA68D93A ====
Kim Hooker - Vocalz
Jay Pepper - Guitarz
Pepsi Tate - Bass
Matt Blackout - Drumz


Трекер:  [ 14-Дек-2012 11:10 ]

  

Скачать .torrent

Размер .torrent файла 12 KB


Размер: 577 MB
Хэш (hash) релиза: 46b41ead14a9985e8f6fa9d25123a1bb1cdb285a

Еще никто не оставлял запись к записи скачать торрент Tigertailz - Thrill Pistol . Будь первым!

!Обратная связь