Скачать через торрент музыку Gillan - Live: Triple Trouble бесплатно без регистрации torrent

Если у вас наблюдаются проблемы со скриншотами, переходом по ссылками, скачиванием торрентов - проблемы в блокировщике рекламы AdBlock. #хорошегоДня!


Статистика раздачи
Размер:  1.4 GB   |    Зарегистрирован:  4 года 8 месяцев   |    .torrent скачан:  12 раз   |   
Раздают:  1  
   
Загрузка...
 
Автор Сообщение

Galfimbul

avatar Galfimbul


Gillan - Live: Triple Trouble (3 CD) - 2009

Жанр: Hard Rock
Страна-производитель диска: EU
Год издания: 2009
Издатель (лейбл): Edsel Records
Номер по каталогу: EDSX 3006
Аудиокодек: FLAC (*.flac)
Тип рипа: image+.cue
Битрейт аудио: lossless
Продолжительность: 03:22:54
Источник (релизер): оригинальный диск
Наличие сканов в содержимом раздачи: да
Треклист:
01. Second Sight (02:17)
02. Unchain Your Brain (04:12)
03. Are You Sure (04:36)
04. Bite The Bullet (05:31)
05. No Easy Way (10:52)
06. Trouble (03:11)
07. If You Believe Me (08:39)
08. Mutually Assured Destruction (04:06)
09. On The Rocks (06:04)
10. Future Shock (04:57)
11. Vengeance (05:54)
12. Smoke On The Water (07:33)
13. Sleeping On The Job (04:31)
14. Lucille (03:21)
Продолжительность: 01:15:52
Exact Audio Copy V0.99 prebeta 5 from 4. May 2009

EAC extraction logfile from 2. December 2012, 17:23

Gillan / Live: Triple Trouble CD 1

Used drive : Optiarc DVD RW AD-7240S Adapter: 3 ID: 1

Read mode : SecureUtilize accurate stream : YesDefeat audio cache : YesMake use of C2 pointers : No

Read offset correction : 48Overread into Lead-In and Lead-Out : NoFill up missing offset samples with silence : YesDelete leading and trailing silent blocks : NoNull samples used in CRC calculations : YesUsed interface : Native Win32 interface for Win NT & 2000

Used output format : User Defined EncoderSelected bitrate : 768 kBit/sQuality : HighAdd ID3 tag : NoCommand line compressor : C:\Program Files\Exact Audio Copy\FLAC\FLAC.EXEAdditional command line options : -8 -V %s

TOC of the extracted CD

Track | Start | Length | Start sector | End sector --------------------------------------------------------- 1 | 0:00.00 | 2:17.23 | 0 | 10297 2 | 2:17.23 | 4:12.19 | 10298 | 29216 3 | 6:29.42 | 4:36.63 | 29217 | 49979 4 | 11:06.30 | 5:31.43 | 49980 | 74847 5 | 16:37.73 | 10:52.03 | 74848 | 123750 6 | 27:30.01 | 3:11.13 | 123751 | 138088 7 | 30:41.14 | 8:39.45 | 138089 | 177058 8 | 39:20.59 | 4:06.52 | 177059 | 195560 9 | 43:27.36 | 6:04.56 | 195561 | 222916 10 | 49:32.17 | 4:57.46 | 222917 | 245237 11 | 54:29.63 | 5:54.10 | 245238 | 271797 12 | 60:23.73 | 7:33.18 | 271798 | 305790 13 | 67:57.16 | 4:31.24 | 305791 | 326139 14 | 72:28.40 | 3:23.55 | 326140 | 341419

Range status and errors

Selected range

Filename C:\Documents and Settings\Виталий\Рабочий стол\Gillan - Live Triple Trouble - 2009 (flac)\CD 1 - Live At The Rainbow London - 1981\Gillan - Live Triple Trouble CD 1.wav

Peak level 100.0 % Range quality 99.9 % Test CRC 2D99B7F4 Copy CRC 2D99B7F4 Copy OK

No errors occurred

AccurateRip summary

Track 1 accurately ripped (confidence 2) [F65287A0]Track 2 accurately ripped (confidence 2) [A50EAD94]Track 3 accurately ripped (confidence 2) [452872A0]Track 4 accurately ripped (confidence 2) [68212201]Track 5 accurately ripped (confidence 2) [4C724EAB]Track 6 accurately ripped (confidence 2) [38275AB8]Track 7 accurately ripped (confidence 2) [6A1A9FF6]Track 8 accurately ripped (confidence 2) [AA97906D]Track 9 accurately ripped (confidence 2) [5F296588]Track 10 accurately ripped (confidence 2) [3076EAD7]Track 11 accurately ripped (confidence 2) [F2889993]Track 12 accurately ripped (confidence 2) [078FADDE]Track 13 accurately ripped (confidence 2) [C5436BA8]Track 14 accurately ripped (confidence 2) [A2F0E83A]

All tracks accurately ripped

End of status report
-----------------------

DON'T MODIFY THIS FILE

-----------------------

PERFORMER: auCDtect Task Manager, ver. 1.5.1RC4 build 1.5.1.5Copyright (c) 2008-2010 y-soft. All rights reservedhttp://y-soft.org

ANALYZER: auCDtect: CD records authenticity detector, version 0.8.2Copyright (c) 2004 Oleg Berngardt. All rights reserved.Copyright (c) 2004 Alexander Djourik. All rights reserved.

FILE: Gillan - Live Triple Trouble CD 1.flac Size: 568877884 Hash: 520DD3A62A6040415BB78F2B017CAD59 Accuracy: -m0 Conclusion: CDDA 100% Signature: 3F32E7DDA769CF4A86AD24D0DAB51B3EB39A35DC
Треклист:
01. Second Sight (02:14)
02. Unchain Your Brain (04:31)
03. Hadely Bop Bop (03:59)
04. No Laughing In Heaven (04:57)
05. Bite The Bullet (06:34)
06. No Easy Way (10:54)
07. Trouble (03:25)
08. Mutually Assured Destruction (05:14)
09. On The Rocks (06:29)
10. Vengeance (04:24)
11. Smoke On The Water (12:54)
12. New Orleans (08:51)
13. Lucille (04:32)
Продолжительность: 01:19:05
Exact Audio Copy V0.99 prebeta 5 from 4. May 2009

EAC extraction logfile from 3. December 2012, 7:06

Gillan / Live Triple Trouble CD 2

Used drive : Optiarc DVD RW AD-7240S Adapter: 3 ID: 1

Read mode : SecureUtilize accurate stream : YesDefeat audio cache : YesMake use of C2 pointers : No

Read offset correction : 48Overread into Lead-In and Lead-Out : NoFill up missing offset samples with silence : YesDelete leading and trailing silent blocks : NoNull samples used in CRC calculations : YesUsed interface : Native Win32 interface for Win NT & 2000

Used output format : User Defined EncoderSelected bitrate : 768 kBit/sQuality : HighAdd ID3 tag : NoCommand line compressor : C:\Program Files\Exact Audio Copy\FLAC\FLAC.EXEAdditional command line options : -8 -V %s

TOC of the extracted CD

Track | Start | Length | Start sector | End sector --------------------------------------------------------- 1 | 0:00.00 | 2:14.17 | 0 | 10066 2 | 2:14.17 | 4:31.55 | 10067 | 30446 3 | 6:45.72 | 3:59.05 | 30447 | 48376 4 | 10:45.02 | 4:57.42 | 48377 | 70693 5 | 15:42.44 | 6:34.06 | 70694 | 100249 6 | 22:16.50 | 10:54.20 | 100250 | 149319 7 | 33:10.70 | 3:25.13 | 149320 | 164707 8 | 36:36.08 | 5:14.57 | 164708 | 188314 9 | 41:50.65 | 6:29.01 | 188315 | 217490 10 | 48:19.66 | 4:24.51 | 217491 | 237341 11 | 52:44.42 | 12:54.34 | 237342 | 295425 12 | 65:39.01 | 8:51.51 | 295426 | 335301 13 | 74:30.52 | 4:34.50 | 335302 | 355901

Range status and errors

Selected range

Filename C:\Documents and Settings\Виталий\Рабочий стол\Gillan - Live Triple Trouble - 2009 (flac)\CD 2 - Live At The Reading Festival - 1981\Gillan - Live Triple Trouble CD 2.wav

Peak level 100.0 % Range quality 100.0 % Test CRC A755644C Copy CRC A755644C Copy OK

No errors occurred

AccurateRip summary

Track 1 accurately ripped (confidence 2) [2E384FD9]Track 2 accurately ripped (confidence 2) [510D9956]Track 3 accurately ripped (confidence 2) [0DF14E9C]Track 4 accurately ripped (confidence 2) [8CAFFE62]Track 5 accurately ripped (confidence 2) [4F5CCB1F]Track 6 accurately ripped (confidence 2) [8C120C26]Track 7 accurately ripped (confidence 2) [C5BC9302]Track 8 accurately ripped (confidence 2) [70CD6ECB]Track 9 accurately ripped (confidence 2) [8F563868]Track 10 accurately ripped (confidence 2) [0AA0F0E7]Track 11 accurately ripped (confidence 2) [D2A31D6D]Track 12 accurately ripped (confidence 2) [9EEF14F4]Track 13 accurately ripped (confidence 2) [A9C1E6A9]

All tracks accurately ripped

End of status report
-----------------------

DON'T MODIFY THIS FILE

-----------------------

PERFORMER: auCDtect Task Manager, ver. 1.5.1RC4 build 1.5.1.5Copyright (c) 2008-2010 y-soft. All rights reservedhttp://y-soft.org

ANALYZER: auCDtect: CD records authenticity detector, version 0.8.2Copyright (c) 2004 Oleg Berngardt. All rights reserved.Copyright (c) 2004 Alexander Djourik. All rights reserved.

FILE: Gillan - Live Triple Trouble CD 2.flac Size: 596990764 Hash: 7CDA5791A9D4CF3E6FF8A44BA0C849FA Accuracy: -m0 Conclusion: CDDA 100% Signature: 04B010E00E7C80D53FF820F02167F1C5E358698C
Треклист:
BBC Radio 1’s “FRIDAY ROCK SHOW”, 23/04/1982
01. No Laughing In Heaven (04:12)
02. Hadely Bop Bop (02:48)
03. Vengeance (03:54)
04. Mutually Assured Destruction (05:06)
05. Born To Kill (08:44)
Live Nottingham Rock City 04/03/1981
06. Second Sight (02:23)
07. Unchain Your Brain (04:11)
08. Trouble (03:17)
09. If You Believe Me (08:37)
10. Lucille (04:37)

Продолжительность: 00:47:57
Exact Audio Copy V0.99 prebeta 5 from 4. May 2009

EAC extraction logfile from 3. December 2012, 7:42

Gillan / Live Triple Trouble CD 3

Used drive : Optiarc DVD RW AD-7240S Adapter: 3 ID: 1

Read mode : SecureUtilize accurate stream : YesDefeat audio cache : YesMake use of C2 pointers : No

Read offset correction : 48Overread into Lead-In and Lead-Out : NoFill up missing offset samples with silence : YesDelete leading and trailing silent blocks : NoNull samples used in CRC calculations : YesUsed interface : Native Win32 interface for Win NT & 2000

Used output format : User Defined EncoderSelected bitrate : 768 kBit/sQuality : HighAdd ID3 tag : NoCommand line compressor : C:\Program Files\Exact Audio Copy\FLAC\FLAC.EXEAdditional command line options : -8 -V %s

TOC of the extracted CD

Track | Start | Length | Start sector | End sector --------------------------------------------------------- 1 | 0:00.00 | 4:11.71 | 0 | 18895 2 | 4:11.71 | 2:48.16 | 18896 | 31511 3 | 7:00.12 | 3:54.32 | 31512 | 49093 4 | 10:54.44 | 5:06.50 | 49094 | 72093 5 | 16:01.19 | 8:46.51 | 72094 | 111594 6 | 24:47.70 | 2:23.36 | 111595 | 122355 7 | 27:11.31 | 4:11.02 | 122356 | 141182 8 | 31:22.33 | 3:17.00 | 141183 | 155957 9 | 34:39.33 | 8:37.65 | 155958 | 194797 10 | 43:17.23 | 4:39.60 | 194798 | 215782

Range status and errors

Selected range

Filename C:\Documents and Settings\Виталий\Рабочий стол\Gillan - Live Triple Trouble - 2009 (flac)\CD 3 - Bonus Disc\Gillan - Live Triple Trouble CD 3.wav

Peak level 99.4 % Range quality 100.0 % Test CRC C54D2453 Copy CRC C54D2453 Copy OK

No errors occurred

AccurateRip summary

Track 1 accurately ripped (confidence 2) [69AB54D0]Track 2 accurately ripped (confidence 2) [D9D0C09F]Track 3 accurately ripped (confidence 2) [C3C424B7]Track 4 accurately ripped (confidence 2) [21D7C19C]Track 5 accurately ripped (confidence 2) [14CAA6E2]Track 6 accurately ripped (confidence 2) [D41D7AB1]Track 7 accurately ripped (confidence 2) [49AB86E4]Track 8 accurately ripped (confidence 2) [19F517BC]Track 9 accurately ripped (confidence 2) [74362B5D]Track 10 accurately ripped (confidence 2) [D2ACEF5A]

All tracks accurately ripped

End of status report
-----------------------

DON'T MODIFY THIS FILE

-----------------------

PERFORMER: auCDtect Task Manager, ver. 1.5.1RC4 build 1.5.1.5Copyright (c) 2008-2010 y-soft. All rights reservedhttp://y-soft.org

ANALYZER: auCDtect: CD records authenticity detector, version 0.8.2Copyright (c) 2004 Oleg Berngardt. All rights reserved.Copyright (c) 2004 Alexander Djourik. All rights reserved.

FILE: Gillan - Live Triple Trouble CD 3.flac Size: 323592275 Hash: CDC5A600DBEB88D47F417472C9C8A120 Accuracy: -m0 Conclusion: CDDA 100% Signature: AE0E5DD33A43C23C306F9611D8E485AAD80CFBAE
За последние пару лет фирмой EDSEL переизданы все основные альбомы GILLAN и IAN GILLAN BAND, впервые вышел отличный бокс с синглами GILLAN в "родных" упаковках.
И вот в довершении всего тройной концертный альбом Live: Triple Trouble, куда вошли концерт в Rainbow Theatre 4 марта 1981 года, концерт на Reading Festival 29 августа 1981 года, пять песен для BBC (апрель 1982) и пять песен с концерта в Ноттинхэме 1981 года. Выпуск был одобрен самим Гилланом, о чем красноречиво засвидетельствовано на обложке. Только одна песня с Rainbow Theatre и половина с Reading выходили официально. Весь остальной материал вышел впервые. Почти тридцать лет поклонники творчества Гиллана ждали выхода этих концертных выступлений и, наконец, свершилось. Можно забросить в дальний угол все предыдущие релизы Angel Air с их отвратительным качеством звука - на "Тройной Беде" звук на порядок лучше. Описывать концерты нет смысла, в целом сет-листы соответствуют изданным ранее релизам с выступлениями группы в то время. Интереснее сравнить полные версии концертов в марте и августе 1981 года с разными гитаристами (Bernie Torme и Janick Gers соответственно). Группа была на пике своего творческого успеха, суперуспешное выступление в качестве хэдлайнеров на фестивале в Рединге о том яркое свидетельство.
На мой взгляд, иметь такую коллекцию переизданных дисков, синглов и тройной концерт Гиллана обязан иметь у себя каждый поклонник его таланта.
P.S. На британском AMAZON в день выхода альбома 9 ноября прекратился прием заявок на приобретение - на складах компании его больше не было. Весь тираж ушел по предзаказам.

Андрей Раужев, <a href="mailto:rauzhev@mail.ru" class="postLink">rauzhev@mail.ru</a>
Москва
Ноябрь 2009 года.


Трекер:  [ 14-Дек-2012 11:10 ]

  

Скачать .torrent

Размер .torrent файла 16 KB


Размер: 1.4 GB
Хэш (hash) релиза: 2f5d9466cf5d204d4f0b7d16fe5f00a37615d421

Еще никто не оставлял запись к записи скачать торрент Gillan - Live: Triple Trouble . Будь первым!

!Обратная связь