Скачать через торрент музыку Led Zeppelin 1971-Led Zeppelin IV бесплатно без регистрации torrent

Если у вас наблюдаются проблемы со скриншотами, переходом по ссылками, скачиванием торрентов - проблемы в блокировщике рекламы AdBlock. #хорошегоДня!


Статистика раздачи
Размер:  291 MB   |    Зарегистрирован:  4 года 11 месяцев   |    .torrent скачан:  38 раз   |   
Раздают:  1  
   
Загрузка...
 
Автор Сообщение

Galfimbul

avatar Galfimbul


Led Zeppelin IV
[CD 19129, Canada, Original Press]

Жанр: Classic Hard Rock
Страна исполнителя: United Kingdom
Страна-производитель диска: Canada
Год выхода альбома / издания диска: 1971 / 1990(?)
Издатель (лейбл): Atlantic
Made By: Cinram
Номер по каталогу: CD 19129
Аудио кодек: FLAC (*.flac)
Тип рипа: image+.cue
Битрейт аудио: lossless
Продолжительность: 42:35
Источник (релизер): Alexandre ZAM (NetLab)
Наличие сканов в содержимом раздачи:
01. Black Dog (4:57)
02. Rock And Roll (3:41)
03. The Battle Of Evermore (5:51)
04. Stairway To Heaven (8:02)
05. Misty Mountain Hop (4:39)
06. Four Sticks (4:44)
07. Going To California (3:36)
08. When The Levee Breaks (7:07)
Exact Audio Copy V0.99 prebeta 5 from 4. May 2009

EAC extraction logfile from 18. June 2010, 21:31

Led Zeppelin / Led Zeppelin IV

Used drive : HL-DT-STDVD-RAM GSA-H22N Adapter: 1 ID: 0

Read mode : SecureUtilize accurate stream : YesDefeat audio cache : YesMake use of C2 pointers : No

Read offset correction : 102Overread into Lead-In and Lead-Out : NoFill up missing offset samples with silence : YesDelete leading and trailing silent blocks : NoNull samples used in CRC calculations : YesUsed interface : Native Win32 interface for Win NT & 2000

Used output format : User Defined EncoderSelected bitrate : 896 kBit/sQuality : HighAdd ID3 tag : NoCommand line compressor : C:\Program Files\Exact Audio Copy\WavPack\wavpack.exeAdditional command line options : -hlm %s

TOC of the extracted CD

Track | Start | Length | Start sector | End sector --------------------------------------------------------- 1 | 0:00.00 | 4:56.42 | 0 | 22241 2 | 4:56.42 | 3:40.63 | 22242 | 38804 3 | 8:37.30 | 5:51.35 | 38805 | 65164 4 | 14:28.65 | 8:01.40 | 65165 | 101279 5 | 22:30.30 | 4:38.57 | 101280 | 122186 6 | 27:09.12 | 4:44.28 | 122187 | 143514 7 | 31:53.40 | 3:35.45 | 143515 | 159684 8 | 35:29.10 | 7:06.57 | 159685 | 191691

Range status and errors

Selected range

Filename E:\ZAM\NL+\LZ\Led Zeppelin - Led Zeppelin IV.wav

Peak level 82.9 % Range quality 99.9 % Test CRC 01844880 Copy CRC 01844880 Copy OK

No errors occurred

AccurateRip summary

Track 1 accurately ripped (confidence 14) [272B9A70]Track 2 accurately ripped (confidence 14) [17F81BA1]Track 3 accurately ripped (confidence 14) [1FA857B1]Track 4 accurately ripped (confidence 12) [CF4B2085]Track 5 accurately ripped (confidence 14) [8AD9B536]Track 6 accurately ripped (confidence 14) [3182F33F]Track 7 accurately ripped (confidence 14) [54095FFB]Track 8 accurately ripped (confidence 12) [5CBB8CB5]

All tracks accurately ripped

End of status report
REM GENRE "Rock"REM DATE 1971REM DISCID 6009FB08REM COMMENT "ExactAudioCopy v0.99pb5"PERFORMER "Led Zeppelin"TITLE "Led Zeppelin IV"FILE "Led Zeppelin - Led Zeppelin IV.flac" WAVE TRACK 01 AUDIO TITLE "Black Dog" PERFORMER "Led Zeppelin" INDEX 01 00:00:00 TRACK 02 AUDIO TITLE "Rock And Roll" PERFORMER "Led Zeppelin" INDEX 00 04:53:15 INDEX 01 04:56:42 TRACK 03 AUDIO TITLE "The Battle Of Evermore" PERFORMER "Led Zeppelin" INDEX 00 08:36:62 INDEX 01 08:37:30 TRACK 04 AUDIO TITLE "Stairway To Heaven" PERFORMER "Led Zeppelin" INDEX 00 14:27:47 INDEX 01 14:28:65 TRACK 05 AUDIO TITLE "Misty Mountain Hop" PERFORMER "Led Zeppelin" INDEX 00 22:27:07 INDEX 01 22:30:30 TRACK 06 AUDIO TITLE "Four Sticks" PERFORMER "Led Zeppelin" INDEX 00 27:07:42 INDEX 01 27:09:12 TRACK 07 AUDIO TITLE "Going To California" PERFORMER "Led Zeppelin" INDEX 00 31:51:57 INDEX 01 31:53:40 TRACK 08 AUDIO TITLE "When The Levee Breaks" PERFORMER "Led Zeppelin" INDEX 00 35:28:27 INDEX 01 35:29:10
[CUETools log; Date: 12.12.2012 9:06:21; Version: 2.1.4][CTDB TOCID: G7r9OM3uZM1znZtK_RHNWzSqx5Y-] found.Track | CTDB Status 1 | ( 9/10) Accurately ripped 2 | ( 9/10) Accurately ripped 3 | ( 9/10) Accurately ripped 4 | ( 9/10) Accurately ripped 5 | ( 9/10) Accurately ripped 6 | ( 9/10) Accurately ripped 7 | ( 9/10) Accurately ripped 8 | ( 9/10) Accurately ripped[AccurateRip ID: 000ce31b-00567e2b-6009fb08] found.Track [ CRC | V2 ] Status 01 [272b9a70|bd8b6f6f] (15+02/55) Accurately ripped 02 [17f81ba1|b80fb70b] (15+02/54) Accurately ripped 03 [1fa857b1|0d7be40b] (15+00/53) Accurately ripped 04 [cf4b2085|cb982b4d] (13+02/54) Accurately ripped 05 [8ad9b536|367579ce] (15+00/53) Accurately ripped 06 [3182f33f|9132dece] (15+00/53) Accurately ripped 07 [54095ffb|eb86c6f2] (15+00/54) Accurately ripped 08 [5cbb8cb5|9f913094] (13+00/51) Accurately rippedOffsetted by -432: 01 [84584400] (04/55) Accurately ripped 02 [abdc1351] (04/54) Accurately ripped 03 [b3833281] (04/53) Accurately ripped 04 [a26c3215] (04/54) Accurately ripped 05 [01f84c46] (04/53) Accurately ripped 06 [7dc8f46f] (04/53) Accurately ripped 07 [469816eb] (04/54) Accurately ripped 08 [41bdcd16] (04/51) Accurately rippedOffsetted by -314: 01 [f91dd80e] (11/55) Accurately ripped 02 [cbc28c1b] (12/54) Accurately ripped 03 [f6fa6167] (12/53) Accurately ripped 04 [e1a45923] (12/54) Accurately ripped 05 [9cb120a4] (12/53) Accurately ripped 06 [172c5a09] (12/53) Accurately ripped 07 [458670cd] (12/54) Accurately ripped 08 [3ef34fe0] (12/51) Accurately rippedOffsetted by -137: 01 [28463623] (03/55) Accurately ripped 02 [fb9c414a] (03/54) Accurately ripped 03 [5c2d27c0] (04/53) Accurately ripped 04 [c07893b8] (03/54) Accurately ripped 05 [84c65f31] (02/53) Accurately ripped 06 [fd417270] (02/53) Accurately ripped 07 [43ebf7a0] (03/54) Accurately ripped 08 [afaa762e] (03/51) Accurately rippedOffsetted by -115: 01 [5c6b0c51] (03/55) Accurately ripped 02 [1fee4674] (03/54) Accurately ripped 03 [4eb88746] (03/53) Accurately ripped 04 [d9464ce6] (03/54) Accurately ripped 05 [011438af] (03/53) Accurately ripped 06 [52429f6a] (03/53) Accurately ripped 07 [06fa0862] (03/54) Accurately ripped 08 [dec885ba] (03/51) Accurately rippedOffsetted by -13: 01 [f115d60f] (04/55) Accurately ripped 02 [6b3c014e] (04/54) Accurately ripped 03 [84b3139c] (04/53) Accurately ripped 04 [921761a4] (04/54) Accurately ripped 05 [4165e33d] (04/53) Accurately ripped 06 [0aeafb94] (04/53) Accurately ripped 07 [a6985614] (04/54) Accurately ripped 08 [9f4a764e] (04/51) Accurately rippedOffsetted by 452: 01 [e2206dc4] (02/55) Accurately ripped 02 [8dd3115d] (02/54) Accurately ripped 03 [dca94815] (02/53) Accurately ripped 04 [e42ae5d9] (02/54) Accurately ripped 05 [84bc126a] (02/53) Accurately ripped 06 [be26bddb] (02/53) Accurately ripped 07 [589eb847] (02/54) Accurately ripped 08 [a3e4f661] (02/51) Accurately ripped

Track Peak [ CRC32 ] [W/O NULL] [ LOG ] -- 82,8 [01844880] [F3031500] CRC32 01 79,0 [58F51FF3] [FB8C3A44] 02 78,5 [8D198CED] [D915D813] 03 61,8 [7D8CABE6] [BDF2B3A7] 04 79,2 [06D56A84] [439D4F46] 05 68,2 [C1FF17E9] [C1D16C27] 06 82,8 [A7EA7000] [22E96C90] 07 64,2 [7E53F9E5] [8691BD6D] 08 72,7 [D377C894] [75FE5656]
foobar2000 1.1.1 / Dynamic Range Meter 1.1.1log date: 2012-12-12 09:04:46

--------------------------------------------------------------------------------Analyzed: Led Zeppelin / Led Zeppelin IV--------------------------------------------------------------------------------

DR Peak RMS Duration Track--------------------------------------------------------------------------------DR13 -2.04 dB -18.43 dB 4:57 01-Black DogDR12 -2.10 dB -16.04 dB 3:41 02-Rock And RollDR11 -4.18 dB -19.41 dB 5:51 03-The Battle Of EvermoreDR13 -2.02 dB -19.44 dB 8:02 04-Stairway To HeavenDR11 -3.32 dB -17.03 dB 4:39 05-Misty Mountain HopDR11 -1.63 dB -15.64 dB 4:44 06-Four SticksDR12 -3.84 dB -20.08 dB 3:36 07-Going To CaliforniaDR11 -2.77 dB -15.97 dB 7:07 08-When The Levee Breaks--------------------------------------------------------------------------------

Number of tracks: 8Official DR value: DR12

Samplerate: 44100 HzChannels: 2Bits per sample: 16Bitrate: 826 kbpsCodec: FLAC

Robert Plant: lead vocals, harmonica, tambourine
Jimmy Page: acoustic and electric guitar, mandolin, production
John Paul Jones: bass guitar, electric piano, mandolin, recorders, EMS VCS 3, acoustic guitar on "The Battle of Evermore"
John Bonham: drums
Огромное спасибо автору рипа!


Трекер:  [ 14-Дек-2012 11:10 ]

  

Скачать .torrent

Размер .torrent файла 13 KB


Размер: 291 MB
Хэш (hash) релиза: 3ebb30ca2e25bf88ee257ecd525a8b59ad877e7a

Еще никто не оставлял запись к записи скачать торрент Led Zeppelin 1971-Led Zeppelin IV . Будь первым!

!Обратная связь