Скачать через торрент музыку Led Zeppelin 1976-Presence бесплатно без регистрации torrent

Если у вас наблюдаются проблемы со скриншотами, переходом по ссылками, скачиванием торрентов - проблемы в блокировщике рекламы AdBlock. #хорошегоДня!


Статистика раздачи
Размер:  301 MB   |    Зарегистрирован:  4 года 8 месяцев   |    .torrent скачан:  33 раза   |   
Раздают:  1  
   
Загрузка...
 
Автор Сообщение

Galfimbul

avatar Galfimbul


Presence
[CD 8416, Canada, Original Press]

Жанр: Classic Hard Rock
Страна исполнителя: United Kingdom
Страна-производитель диска: Canada
Год выхода альбома / издания диска: 1976 / 1990(?)
Издатель (лейбл): Atlantic / Swan Song
Номер по каталогу: CD 8416
Аудио кодек: FLAC (*.flac)
Тип рипа: image+.cue
Битрейт аудио: lossless
Продолжительность: 44:20
Источник (релизер): Alexandre ZAM (NetLab)
Наличие сканов в содержимом раздачи:
01. Achilles Last Stand (10:28)
02. For Your Life (6:24)
03. Royal Orleans (2:59)
04. Nobody's Fault But Mine (6:14)
05. Candy Store Rock (4:11)
06. Hots On For Nowhere (4:42)
07. Tea For One (9:23)
Exact Audio Copy V1.0 beta 1 from 15. November 2010

EAC extraction logfile from 29. December 2010, 16:55

Led Zeppelin / Presence

Used drive : HL-DT-STDVDRAM GSA-T20N Adapter: 0 ID: 0

Read mode : SecureUtilize accurate stream : YesDefeat audio cache : YesMake use of C2 pointers : No

Read offset correction : 667Overread into Lead-In and Lead-Out : NoFill up missing offset samples with silence : YesDelete leading and trailing silent blocks : NoNull samples used in CRC calculations : YesUsed interface : Native Win32 interface for Win NT & 2000

Used output format : User Defined EncoderSelected bitrate : 896 kBit/sQuality : HighAdd ID3 tag : NoCommand line compressor : C:\Program Files\Exact Audio Copy\wavpack.exeAdditional command line options : -hlm %s

TOC of the extracted CD

Track | Start | Length | Start sector | End sector --------------------------------------------------------- 1 | 0:00.32 | 10:27.68 | 32 | 47124 2 | 10:28.25 | 6:23.72 | 47125 | 75921 3 | 16:52.22 | 2:59.10 | 75922 | 89356 4 | 19:51.32 | 6:13.65 | 89357 | 117396 5 | 26:05.22 | 4:11.05 | 117397 | 136226 6 | 30:16.27 | 4:42.03 | 136227 | 157379 7 | 34:58.30 | 9:22.67 | 157380 | 199596

Range status and errors

Selected range

Filename D:\NL+\LZ\Led Zeppelin - Presence.wav

Peak level 100.0 % Extraction speed 0.8 X Range quality 99.9 % Test CRC 5B07E28B Copy CRC 5B07E28B Copy OK

No errors occurred

AccurateRip summary

Track 1 accurately ripped (confidence 37) [670B465B]Track 2 accurately ripped (confidence 38) [B6EE93BC]Track 3 accurately ripped (confidence 39) [8A6C25F7]Track 4 accurately ripped (confidence 38) [F365C8F0]Track 5 accurately ripped (confidence 38) [D645E54F]Track 6 accurately ripped (confidence 37) [ECA821E2]Track 7 accurately ripped (confidence 36) [0D30C5A9]

All tracks accurately ripped

End of status report

==== Log checksum AE7F4C5C0AB0D87EC2A62171BBB59A6A0B8D3F3DF2FC2220C63226D66F5A175C ====
REM GENRE "Rock"REM DATE 1976REM DISCID 470A6507REM COMMENT "ExactAudioCopy v1.0b1"PERFORMER "Led Zeppelin"TITLE "Presence"FILE "Led Zeppelin - Presence.flac" WAVE TRACK 01 AUDIO TITLE "Achilles Last Stand" PERFORMER "Led Zeppelin" INDEX 00 00:00:00 INDEX 01 00:00:32 TRACK 02 AUDIO TITLE "For Your Life" PERFORMER "Led Zeppelin" INDEX 01 10:28:25 TRACK 03 AUDIO TITLE "Royal Orleans" PERFORMER "Led Zeppelin" INDEX 00 16:50:62 INDEX 01 16:52:22 TRACK 04 AUDIO TITLE "Nobody's Fault But Mine" PERFORMER "Led Zeppelin" INDEX 00 19:49:47 INDEX 01 19:51:32 TRACK 05 AUDIO TITLE "Candy Store Rock" PERFORMER "Led Zeppelin" INDEX 00 26:05:00 INDEX 01 26:05:22 TRACK 06 AUDIO TITLE "Hots On For Nowhere" PERFORMER "Led Zeppelin" INDEX 00 30:12:16 INDEX 01 30:16:27 TRACK 07 AUDIO TITLE "Tea For One" PERFORMER "Led Zeppelin" INDEX 00 34:57:10 INDEX 01 34:58:30
[CUETools log; Date: 12.12.2012 9:06:34; Version: 2.1.4]Pregap length 00:00:32.[CTDB TOCID: PcprHg5IuHzVmIAlW9Hvy0dbVes-] found.Track | CTDB Status 1 | (1/1) Accurately ripped 2 | (1/1) Accurately ripped 3 | (1/1) Accurately ripped 4 | (1/1) Accurately ripped 5 | (1/1) Accurately ripped 6 | (1/1) Accurately ripped 7 | (1/1) Accurately ripped[AccurateRip ID: 000c8efd-0048f8b3-470a6507] found.Track [ CRC | V2 ] Status 01 [670b465b|4fbff035] (040+003/100) Accurately ripped 02 [b6ee93bc|e1110c80] (042+003/103) Accurately ripped 03 [8a6c25f7|3a57a5d1] (043+003/104) Accurately ripped 04 [f365c8f0|9b34f101] (042+003/103) Accurately ripped 05 [d645e54f|02cbc554] (042+002/101) Accurately ripped 06 [eca821e2|4468daae] (041+003/098) Accurately ripped 07 [0d30c5a9|65ddd53e] (039+003/099) Accurately rippedOffsetted by 1432: 01 [67c52063] (032/100) Accurately ripped 02 [eb82aa1c] (029/103) Accurately ripped 03 [d1cdea6f] (029/104) Accurately ripped 04 [7047cd70] (029/103) Accurately ripped 05 [8bda81a7] (029/101) Accurately ripped 06 [7546784a] (028/098) Accurately ripped 07 [d7bec476] (028/099) Accurately rippedOffsetted by 1465: 01 [ac3c6b78] (017/100) Accurately ripped 02 [c2264543] (019/103) Accurately ripped 03 [dd481fc4] (019/104) Accurately ripped 04 [cdf958a0] (019/103) Accurately ripped 05 [0b919890] (018/101) Accurately ripped 06 [9f930ea9] (018/098) Accurately ripped 07 [1c636de7] (019/099) Accurately rippedOffsetted by 1392: 01 [2a570d19] (000/100) No match (V2 was not tested) 02 [a05d0f4a] (002/103) Accurately ripped 03 [6e8f1e27] (002/104) Accurately ripped 04 [3503fdf0] (002/103) Accurately ripped 05 [1013da3f] (002/101) Accurately ripped 06 [fc2f7472] (000/098) No match (V2 was not tested) 07 [33f913b4] (002/099) Accurately rippedOffsetted by 1514: 01 [fc7ceb0c] (000/100) No match (V2 was not tested) 02 [e8f41497] (000/103) No match (V2 was not tested) 03 [43a84069] (000/104) No match (V2 was not tested) 04 [dcf936d0] (000/103) No match (V2 was not tested) 05 [effe8c09] (000/101) No match (V2 was not tested) 06 [c71c0cf8] (000/098) No match (V2 was not tested) 07 [f6916784] (000/099) No match (V2 was not tested)

Track Peak [ CRC32 ] [W/O NULL] [ LOG ] -- 100,0 [5B07E28B] [D3F81145] CRC32 01 100,0 [C3DD7A40] [46D83085] 02 91,1 [B2DF9EF7] [B1C59C66] 03 94,5 [932BAD64] [50E86B05] 04 78,4 [3B33688B] [53FD098D] 05 80,2 [45FAD50F] [A0D3C303] 06 88,7 [717B4ADB] [D109E230] 07 77,6 [A2D829A2] [E2296A8D]
foobar2000 1.1.1 / Dynamic Range Meter 1.1.1log date: 2012-12-12 09:05:04

--------------------------------------------------------------------------------Analyzed: Led Zeppelin / Presence--------------------------------------------------------------------------------

DR Peak RMS Duration Track--------------------------------------------------------------------------------DR13 0.00 dB -16.06 dB 10:28 01-Achilles Last StandDR13 -0.80 dB -16.53 dB 6:24 02-For Your LifeDR13 -0.49 dB -16.19 dB 2:59 03-Royal OrleansDR12 -2.11 dB -17.29 dB 6:14 04-Nobody's Fault But MineDR14 -1.91 dB -17.66 dB 4:11 05-Candy Store RockDR14 -1.04 dB -17.59 dB 4:42 06-Hots On For NowhereDR14 -2.19 dB -19.73 dB 9:23 07-Tea For One--------------------------------------------------------------------------------

Number of tracks: 7Official DR value: DR13

Samplerate: 44100 HzChannels: 2Bits per sample: 16Bitrate: 866 kbpsCodec: FLAC

Robert Plant: vocals and harmonica
Jimmy Page: electric guitars, producer
John Paul Jones: 4,5 and 8 string bass guitars
John Bonham: drums and percussion

Barry Diament: CD Mastering
Огромное спасибо автору рипа!


Трекер:  [ 14-Дек-2012 11:10 ]

  

Скачать .torrent

Размер .torrent файла 13 KB


Размер: 301 MB
Хэш (hash) релиза: 0a5447198a92cf50f9a85d1c5aa95366fe09874b

Торренты, похожие на Led Zeppelin 1976-Presence скачать торрент

Форум Название Автор Размер S L Добавлен
Rосk | Mеtаl | Аltеrnаtivе, Рunk, Indереndеnt (losslеss) ·· (Hard Rock) Led Zeppelin - 1976 Presence (Japan 2nd Press 20P2-2028) - 1988, FLAC (image+.cue), lossless Galfimbul 307060950293 MB 0 0 1297875697

20:01

16-Фев-11

Rосk | Mеtаl | Аltеrnаtivе, Рunk, Indереndеnt (losslеss) ·· (Rock) Led Zeppelin - Presence (Japan Warner WPCR-11618) - 1976, FLAC (tracks), lossless Galfimbul 322565950308 MB 0 0 1297876267

20:11

16-Фев-11

Еще никто не оставлял запись к записи скачать торрент Led Zeppelin 1976-Presence . Будь первым!

!Обратная связь