Скачать через торрент музыку America - America - 1972, APE бесплатно без регистрации torrent

Если у вас наблюдаются проблемы со скриншотами, переходом по ссылками, скачиванием торрентов - проблемы в блокировщике рекламы AdBlock. #хорошегоДня!


Статистика раздачи
Размер:  261 MB   |    Зарегистрирован:  4 года 8 месяцев   |    .torrent скачан:  11 раз   |   
Раздают:  1  
   
Загрузка...
 
Автор Сообщение

Galfimbul

avatar Galfimbul


America / America

Жанр: Folk-Rock
Страна-производитель диска: Japan
Год издания: 1972
Издатель (лейбл): WEA
Номер по каталогу: WPCR-701
Страна: USA
Аудиокодек: APE (*.ape)
Тип рипа: image+.cue
Битрейт аудио: lossless
Продолжительность: 0:46:20
Источник (релизер): Собственный релиз
Наличие сканов в содержимом раздачи: нет
Треклист:
01.Riverside
02.Sandman
03.Three Roses
04.Children
05.A Horse With No Name
06.Here
07.I Need You
08.Rainy Day
09.Never Found the Time
10.Clarice
11.Donkey Jaw
12.Pigeon Song
Exact Audio Copy V0.99 prebeta 5 from 4. May 2009

Отчёт EAC об извлечении, выполненном 12. декабря 2012, 9:28

America / America

Дисковод: Optiarc DVD RW AD-7200S Adapter: 3 ID: 0

Режим чтения : ДостоверностьИспользование точного потока : ДаОтключение кэша аудио : ДаИспользование указателей C2 : Нет

Коррекция смещения при чтении : 48Способность читать области Lead-in и Lead-out : НетЗаполнение пропущенных сэмплов тишиной : ДаУдаление блоков с тишиной в начале и конце : НетПри вычислениях CRC использовались нулевые сэмплы : ДаИнтерфейс : Встроенный Win32-интерфейс для Win NT/2000

Выходной формат : Внутренние WAV-операцииФормат сэмплов : 44.100 Гц; 16 бит; стерео

TOC извлечённого CD

Трек | Старт | Длительность | Начальный сектор | Конечный сектор --------------------------------------------------------------------- 1 | 0:00.32 | 3:05.30 | 32 | 13936 2 | 3:05.62 | 5:08.33 | 13937 | 37069 3 | 8:14.20 | 3:56.37 | 37070 | 54806 4 | 12:10.57 | 3:08.23 | 54807 | 68929 5 | 15:19.05 | 4:17.42 | 68930 | 88246 6 | 19:36.47 | 5:29.60 | 88247 | 112981 7 | 25:06.32 | 3:08.03 | 112982 | 127084 8 | 28:14.35 | 2:55.40 | 127085 | 140249 9 | 31:10.00 | 3:50.55 | 140250 | 157554 10 | 35:00.55 | 4:01.22 | 157555 | 175651 11 | 39:02.02 | 5:19.48 | 175652 | 199624 12 | 44:21.50 | 2:19.20 | 199625 | 210069

Характеристики диапазона извлечения и сообщения об ошибках

Выбранный диапазон

Имя файла C:\Users\Bishop\Desktop\America (Japan)\America - America.wav

Пиковый уровень 100.0 % Качество диапазона 100.0 % CRC теста 66686895 CRC копии 66686895 Копирование... OK

Ошибок не произошло

AccurateRip: сводка

Трек 1 точное извлечение (доверие 1) [602A7532]Трек 2 точное извлечение (доверие 1) [DCB7E708]Трек 3 точное извлечение (доверие 1) [4A0C8ED6]Трек 4 точное извлечение (доверие 1) [110A4C98]Трек 5 точное извлечение (доверие 1) [E655B64D]Трек 6 точное извлечение (доверие 1) [181B567C]Трек 7 точное извлечение (доверие 1) [13728107]Трек 8 точное извлечение (доверие 1) [3D1E9246]Трек 9 точное извлечение (доверие 1) [7E8E04D7]Трек 10 точное извлечение (доверие 1) [F743E9CF]Трек 11 точное извлечение (доверие 1) [864BAB17]Трек 12 точное извлечение (доверие 1) [1C07192D]

Все треки извлечены точно

Конец отчёта
REM GENRE RockREM DATE 1972REM DISCID A70AF00CREM COMMENT ExactAudioCopy v0.99pb5PERFORMER "America"TITLE "America"FILE "America - America.ape" WAVE TRACK 01 AUDIO TITLE "Riverside" INDEX 00 00:00:00 INDEX 01 00:00:32 TRACK 02 AUDIO TITLE "Sandman" INDEX 00 03:04:47 INDEX 01 03:05:62 TRACK 03 AUDIO TITLE "Three Roses" INDEX 00 08:13:12 INDEX 01 08:14:20 TRACK 04 AUDIO TITLE "Children" INDEX 00 12:08:50 INDEX 01 12:10:57 TRACK 05 AUDIO TITLE "A Horse With No Name" INDEX 00 15:17:52 INDEX 01 15:19:05 TRACK 06 AUDIO TITLE "Here" INDEX 00 19:30:70 INDEX 01 19:36:47 TRACK 07 AUDIO TITLE "I Need You" INDEX 00 25:02:70 INDEX 01 25:06:32 TRACK 08 AUDIO TITLE "Rainy Day" INDEX 00 28:11:45 INDEX 01 28:14:35 TRACK 09 AUDIO TITLE "Never Found the Time" INDEX 00 31:08:22 INDEX 01 31:10:00 TRACK 10 AUDIO TITLE "Clarice" INDEX 00 34:59:32 INDEX 01 35:00:55 TRACK 11 AUDIO TITLE "Donkey Jaw" INDEX 00 39:00:60 INDEX 01 39:02:02 TRACK 12 AUDIO TITLE "Pigeon Song" INDEX 00 44:20:20 INDEX 01 44:21:50


Трекер:  [ 14-Дек-2012 11:10 ]

  

Скачать .torrent

Размер .torrent файла 11 KB


Размер: 261 MB
Хэш (hash) релиза: afe3d61593e11f6fc036ef437699f79e57f9d644

Торренты, похожие на America - America - 1972, APE скачать торрент

Форум Название Автор Размер S L Добавлен
Rосk | Mеtаl | Аltеrnаtivе, Рunk, Indереndеnt (losslеss) ·· (Rock) America - America; Homecoming - 1972, APE (image+.cue), lossless Galfimbul 577770676551 MB 0 0 1365842856

11:47

13-Апр-13

Еще никто не оставлял запись к записи скачать торрент America - America - 1972, APE . Будь первым!

!Обратная связь