Скачать через торрент музыку Wig Wam - Wig Wamania бесплатно без регистрации torrent

Если у вас наблюдаются проблемы со скриншотами, переходом по ссылками, скачиванием торрентов - проблемы в блокировщике рекламы AdBlock. #хорошегоДня!


Статистика раздачи
Размер:  473 MB   |    Зарегистрирован:  4 года 10 месяцев   |    .torrent скачан:  16 раз   |   
Раздают:  1  
   
Загрузка...
 
Автор Сообщение

Galfimbul

avatar Galfimbul


Wig Wam / Wig Wamania [Japanese KICP - 1169]

Жанр: Glam Rock
Страна-производитель диска: Japan
Год издания: 2007
Издатель (лейбл): King Record
Номер по каталогу: KICP - 1169
Страна: Norway
Аудиокодек: FLAC (*.flac)
Тип рипа: image+.cue
Битрейт аудио: lossless
Продолжительность: 55:34
Источник (релизер): Собственный рип
Наличие сканов в содержимом раздачи: да

Треклист:
1.WIG WAMANIA
2. ROCK MY RIDE
3. SLAVE TO YOUR LOVE
4. GONNA GET YOU SOMEDAY
5. BYGONE ZONE
6. DARE DEVIL HEAT
7. KILL MY ROCK 'N' ROLL
8. RIDDLE,THE
9. AT THE END OF THE DAY
10. R 'N' R GIRL LIKE YOU,A
11. CAN'T GET HER(OUT OF MY BED)
12. BREAKING ALL THE RULES
13. AFTER THE NINE O'CLOCK NEWS (Bonus Track)
14. FLYING HIGH (Bonus Track)
15. IN MY DREAM(LIVE VERSION) (Bonus Track)
Exact Audio Copy V1.0 beta 3 from 29. August 2011

Отчёт EAC об извлечении, выполненном 11. декабря 2012, 14:33

Wig Wam / Wig Wamania

Дисковод: PIONEER DVD-RW DVRTD11RS Adapter: 0 ID: 1

Режим чтения : ДостоверностьИспользование точного потока : ДаОтключение кэша аудио : ДаИспользование указателей C2 : Нет

Коррекция смещения при чтении : 6Способность читать области Lead-in и Lead-out : НетЗаполнение пропущенных сэмплов тишиной : ДаУдаление блоков с тишиной в начале и конце : НетПри вычислениях CRC использовались нулевые сэмплы : ДаИнтерфейс : Установленный внешний ASPI-интерфейс

Выходной формат : Пользовательский кодировщикВыбранный битрейт : 128 kBit/sКачество : ВысокийДобавление ID3-тега : НетУтилита сжатия : C:\Program Files (x86)\Exact Audio Copy\FLAC\FLAC.EXEДополнительные параметры : -V -8 -T "Date=%year%" -T "Genre=%genre%" %source%

TOC извлечённого CD

Трек | Старт | Длительность | Начальный сектор | Конечный сектор --------------------------------------------------------------------- 1 | 0:00.00 | 0:59.20 | 0 | 4444 2 | 0:59.20 | 4:12.60 | 4445 | 23404 3 | 5:12.05 | 3:51.37 | 23405 | 40766 4 | 9:03.42 | 3:09.63 | 40767 | 55004 5 | 12:13.30 | 4:56.02 | 55005 | 77206 6 | 17:09.32 | 4:06.25 | 77207 | 95681 7 | 21:15.57 | 3:24.23 | 95682 | 111004 8 | 24:40.05 | 3:15.50 | 111005 | 125679 9 | 27:55.55 | 4:47.15 | 125680 | 147219 10 | 32:42.70 | 3:09.50 | 147220 | 161444 11 | 35:52.45 | 2:53.70 | 161445 | 174489 12 | 38:46.40 | 4:14.35 | 174490 | 193574 13 | 43:01.00 | 3:34.47 | 193575 | 209671 14 | 46:35.47 | 3:22.30 | 209672 | 224851 15 | 49:58.02 | 5:35.65 | 224852 | 250041

Характеристики диапазона извлечения и сообщения об ошибках

Выбранный диапазон

Имя файла C:\Users\user\Desktop\Новая папка\Wig Wam - Wig Wamania.wav

Пиковый уровень 98.7 % Скорость извлечения 5.1 X Качество диапазона 100.0 % CRC теста B51BC513 CRC копии B51BC513 Копирование... OK

Ошибок не произошло

AccurateRip: сводка

Трек 1 : извлечено точно (доверие 2) [77377980] (AR v1)Трек 2 : извлечено точно (доверие 2) [DA9E28C6] (AR v1)Трек 3 : извлечено точно (доверие 2) [6B8AEEEB] (AR v1)Трек 4 : извлечено точно (доверие 2) [0988AC8E] (AR v1)Трек 5 : извлечено точно (доверие 2) [571CD678] (AR v1)Трек 6 : извлечено точно (доверие 2) [4183D494] (AR v1)Трек 7 : извлечено точно (доверие 2) [0E227141] (AR v1)Трек 8 : извлечено точно (доверие 2) [24E4BF44] (AR v1)Трек 9 : извлечено точно (доверие 2) [8269A987] (AR v1)Трек 10 : извлечено точно (доверие 2) [DCD43CD3] (AR v1)Трек 11 : извлечено точно (доверие 2) [2FCF528D] (AR v1)Трек 12 : извлечено точно (доверие 2) [BA44E2DD] (AR v1)Трек 13 : извлечено точно (доверие 2) [BD384FA2] (AR v1)Трек 14 : извлечено точно (доверие 2) [0648FA36] (AR v1)Трек 15 : извлечено точно (доверие 2) [4CC09C11] (AR v1)

Все треки извлечены точно

Конец отчёта

---- CUETools DB Plugin V2.1.3

[CTDB TOCID: 992TPvMemIRSwDLeiRwgDfle4KQ-] disk not present in database, Submit result: 992TPvMemIRSwDLeiRwgDfle4KQ- has been uploaded

==== Контрольная сумма отчёта 146351F6E599630E73B31019C87C1A32CAC47E4372C02E639F83042BCCBB3084 ====
Glam (Age Sten Nilsen) Vocals Teeny (Trond Holter) Guitars Flash (Bernt Jansen) Bass Sporty (Oystein Andersen) Drums


Трекер:  [ 14-Дек-2012 11:10 ]

  

Скачать .torrent

Размер .torrent файла 20 KB


Размер: 473 MB
Хэш (hash) релиза: 14479a47feaf098b91689f2f36d3c98a83263812

Еще никто не оставлял запись к записи скачать торрент Wig Wam - Wig Wamania . Будь первым!

!Обратная связь