Скачать через торрент Наруто - Главный Бойцовский Турнир Naruto: Narutimate Hero бесплатно Аниме Все серии на русском torrent

Если у вас наблюдаются проблемы со скриншотами, переходом по ссылками, скачиванием торрентов - проблемы в блокировщике рекламы AdBlock. #хорошегоДня!


Статистика раздачи
Размер:  354 MB   |    Зарегистрирован:  4 года 8 месяцев   |    .torrent скачан:  39 раз   |   
Раздают:  1  
   
Загрузка...
 
Автор Сообщение

Galfimbul

avatar Galfimbul


Наруто - Главный Бойцовский Турнир
Finally a clash! Jounin VS Genin! Indiscriminate grand melee tournament meeting!
Год выпуска: 2005
Страна: Япония
Жанр: приключения, комедия, боевые искусства, сёнэн
Продолжительность: 26 мин.
Тип: OVA
Студия:
Режиссёр: Хаято Датэ
Снято по манге: Naruto
Автор оригинала: Кисимото Масаси
Дата выхода: 22.12.2005
Субтитры: есть
Озвучивание: NIKITOS
Работа над звуком: DaveNolt
Работа над таймингом: Gigantic Guyver
Перевод: Jaga
Энкод: CoRBoN
Релиз-группа:

Описание: Эта серия является бонусом к выпущенной компанией Bandai видеоигре Naruto: Narutimate Hero 3 для приставки PlayStation 2 (третья игра, героями которой являются персонажи легендарного сериала).
В ролях: Такэути Дзюнко, Накамура Тиэ, Иноэ Кадзухико, Оцука Хотю, Кацуки Масако, Нэмото Кэйко, Морикубо Сётаро, Сэки Тосихико, Тобита Нобуо, Цубой Томохиро, Отани Икуэ, Паку Роми, Мидзуки Нана
Качество: SATRip
Формат видео: AVI
Видео: XVID, 704х396, 23.976 кадр/сек, 1 499Кбит/сек
Аудио №1: RUS - MP3 48000 Hz, Stereo, 192 kbps
Аудио №2: JAP - MP3 48000 Hz, Stereo, 192 kbps
Язык Русский (в составе контейнера) ; Озвучка: (Одноголосная), NIKITOS / SHIZA
Общее
Полное имя : D:\[SHiZA Project] Naruto OVA [HWP]\[SHiZA Project] Jounin vs Genin! OVA [RUS JAP] [HWP] [704x396 XviD] [NIKITOS].avi
Формат : AVI
Формат/Информация : Audio Video Interleave
Размер файла : 354 Мбайт
Продолжительность : 26 м.
Общий поток : 1895 Кбит/сек
Программа кодирования : VirtualDubModRus 1.5.10.2 (build 2542/release)
Библиотека кодирования : VirtualDubMod build 2542/release

Видео
Идентификатор : 0
Формат : MPEG-4 Visual
Профиль формата : Simple@L3
Параметр BVOP формата : Нет
Параметр QPel формата : Нет
Параметр GMC формата : Без точки перехода
Параметр матрицы формата : Default (H.263)
Идентификатор кодека : XVID
Идентификатор кодека/Подсказка : XviD
Продолжительность : 26 м.
Битрейт : 1499 Кбит/сек
Ширина : 704 пикселя
Высота : 396 пикселей
Соотношение сторон : 4:3
Частота кадров : 23,976 кадра/сек
Цветовое пространство : YUV
Субдискретизация насыщенности : 4:2:0
Битовая глубина : 8 бит
Тип развёртки : Прогрессивная
Метод сжатия : С потерями
Бит/(Пиксели*Кадры) : 0.224
Размер потока : 280 Мбайт (79%)
Библиотека кодирования : XviD 64

Аудио #1
Идентификатор : 1
Формат : MPEG Audio
Версия формата : Version 1
Профиль формата : Layer 3
Режим : Joint stereo
Расширение режима : MS Stereo
Идентификатор кодека : 55
Идентификатор кодека/Подсказка : MP3
Продолжительность : 26 м.
Вид битрейта : Постоянный
Битрейт : 192 Кбит/сек
Каналы : 2 канала
Частота : 48,0 КГц
Метод сжатия : С потерями
Размер потока : 35,8 Мбайт (10%)
Выравнивание : Соединение по промежуткам
Продолжительность промежутка : 42 мс. (1,00 видеокадр)
Время предзагрузки промежутка : 504 мс.
Заголовок : Russian [NIKITOS]

Аудио #2
Идентификатор : 2
Формат : MPEG Audio
Версия формата : Version 1
Профиль формата : Layer 3
Режим : Joint stereo
Расширение режима : MS Stereo
Идентификатор кодека : 55
Идентификатор кодека/Подсказка : MP3
Продолжительность : 25 м.
Вид битрейта : Постоянный
Битрейт : 192 Кбит/сек
Каналы : 2 канала
Частота : 48,0 КГц
Метод сжатия : С потерями
Размер потока : 35,7 Мбайт (10%)
Выравнивание : Соединение по промежуткам
Продолжительность промежутка : 42 мс. (1,01 видеокадр)
Время предзагрузки промежутка : 504 мс.
Заголовок : Japanese [Original]


Трекер:  [ 13-Дек-2012 13:49 ]

  

Скачать .torrent

Размер .torrent файла 14 KB


Размер: 354 MB
Хэш (hash) релиза: c081d1003069bb233d0cabf915393619171a8118
Подписка на обновления:

Еще никто не оставлял запись к записи скачать торрент Наруто - Главный Бойцовский Турнир Naruto: Narutimate Hero . Будь первым!

!Обратная связь