..."/> ...">

Скачать через торрент музыку The Divine Comedy - Victory for the Comic Muse - 2006, FLAC бесплатно без регистрации torrent

Если у вас наблюдаются проблемы со скриншотами, переходом по ссылками, скачиванием торрентов - проблемы в блокировщике рекламы AdBlock. #хорошегоДня!


Статистика раздачи
Размер:  288 MB   |    Зарегистрирован:  4 года 11 месяцев   |    .torrent скачан:  9 раз   |   
Раздают:  1  
   
Загрузка...
 
Автор Сообщение

Galfimbul

avatar Galfimbul


The Divine Comedy / Victory for the Comic Muse

Жанр: Chamber pop, Baroque pop
Страна-производитель диска: EU
Год издания: 2006
Издатель (лейбл): EMI Records, Parlophone
Номер по каталогу: 365372
Страна: Northern Ireland
Аудиокодек: FLAC (*.flac)
Тип рипа: image+.cue
Битрейт аудио: lossless
Продолжительность: 00:44:27
Источник (релизер): Рип с собственных фирменных дисков
Наличие сканов в содержимом раздачи: да
Треклист:
1. "To Die a Virgin" – 3:39
2. "Mother Dear" – 3:47
3. "Diva Lady" – 4:17
4. "A Lady of a Certain Age" – 5:47
5. "The Light of Day" – 4:24
6. "Threesome" – 1:10
7. "Party Fears Two" – 4:02
8. "Arthur C. Clarke's Mysterious World" – 3:58
9. "The Plough" – 5:14
10. "Count Grassi's Passage Over Piedmont" – 3:32
11. "Snowball in Negative" – 4:40
Exact Audio Copy V1.0 beta 3 from 29. August 2011

EAC extraction logfile from 9. December 2012, 17:16

The Divine Comedy / Victory for the Comic Muse

Used drive : Optiarc DVD RW AD-7201A Adapter: 1 ID: 0

Read mode : SecureUtilize accurate stream : YesDefeat audio cache : YesMake use of C2 pointers : No

Read offset correction : 69Overread into Lead-In and Lead-Out : NoFill up missing offset samples with silence : YesDelete leading and trailing silent blocks : NoNull samples used in CRC calculations : YesUsed interface : Native Win32 interface for Win NT & 2000

Used output format : User Defined EncoderSelected bitrate : 1024 kBit/sQuality : HighAdd ID3 tag : YesCommand line compressor : C:\Program Files\Exact Audio Copy\FLAC\FLAC.EXEAdditional command line options : -V -8 -T "Date=%year%" -T "Genre=%genre%" %source%

TOC of the extracted CD

Track | Start | Length | Start sector | End sector --------------------------------------------------------- 1 | 0:00.00 | 3:39.45 | 0 | 16469 2 | 3:39.45 | 3:47.20 | 16470 | 33514 3 | 7:26.65 | 4:17.30 | 33515 | 52819 4 | 11:44.20 | 5:47.57 | 52820 | 78901 5 | 17:32.02 | 4:24.34 | 78902 | 98735 6 | 21:56.36 | 1:10.51 | 98736 | 104036 7 | 23:07.12 | 4:02.33 | 104037 | 122219 8 | 27:09.45 | 3:58.00 | 122220 | 140069 9 | 31:07.45 | 5:14.11 | 140070 | 163630 10 | 36:21.56 | 3:32.30 | 163631 | 179560 11 | 39:54.11 | 4:40.16 | 179561 | 200576

Range status and errors

Selected range

Filename C:\Users\Vladyslav\Documents\The Divine Comedy - Victory for the Comic Muse.wav

Peak level 98.6 % Extraction speed 3.7 X Range quality 100.0 % Test CRC D0F743F9 Copy CRC D0F743F9 Copy OK

No errors occurred

End of status report

==== Log checksum 91B316DBD3F398358CF5F74A8D3DCCFC1441DB903F6F5C86FEDA34E96B6C48F2 ====
REM DATE 2006REM DISCID 950A720BREM COMMENT "ExactAudioCopy v1.0b3"PERFORMER "The Divine Comedy"TITLE "Victory for the Comic Muse"FILE "The Divine Comedy - Victory for the Comic Muse.flac" WAVE TRACK 01 AUDIO TITLE "To Die A Virgin" PERFORMER "The Divine Comedy" INDEX 01 00:00:00 TRACK 02 AUDIO TITLE "Mother Dear" PERFORMER "The Divine Comedy" INDEX 01 03:39:45 TRACK 03 AUDIO TITLE "Diva Lady" PERFORMER "The Divine Comedy" INDEX 00 07:25:25 INDEX 01 07:26:65 TRACK 04 AUDIO TITLE "A Lady Of A Certain Age" PERFORMER "The Divine Comedy" INDEX 00 11:43:49 INDEX 01 11:44:20 TRACK 05 AUDIO TITLE "The Light Of Day" PERFORMER "The Divine Comedy" INDEX 01 17:32:02 TRACK 06 AUDIO TITLE "Threesome" PERFORMER "The Divine Comedy" INDEX 00 21:55:41 INDEX 01 21:56:36 TRACK 07 AUDIO TITLE "Party Fears Two" PERFORMER "The Divine Comedy" INDEX 00 23:06:63 INDEX 01 23:07:12 TRACK 08 AUDIO TITLE "Arthur C. Clarke's Mysterious World" PERFORMER "The Divine Comedy" INDEX 00 27:08:36 INDEX 01 27:09:45 TRACK 09 AUDIO TITLE "The Plough" PERFORMER "The Divine Comedy" INDEX 00 31:06:53 INDEX 01 31:07:45 TRACK 10 AUDIO TITLE "Count Grassi's Passage Over Piedmont" PERFORMER "The Divine Comedy" INDEX 00 36:21:19 INDEX 01 36:21:56 TRACK 11 AUDIO TITLE "Snowball In Negative" PERFORMER "The Divine Comedy" INDEX 01 39:54:11
The Divine Comedy are a chamber pop band from Northern Ireland formed in 1989 and fronted by Neil Hannon. Hannon has been the only constant member of the group, playing, in some instances, all of the non-orchestral instrumentation besides drums. To date, ten studio albums have been released under the Divine Comedy name. The group achieved their greatest commercial success in the years 1996–99, during which they had nine singles that made the UK Top 40, including the top ten hit "National Express".
Victory for the Comic Muse is the ninth studio album by The Divine Comedy. It was released by EMI on June 19, 2006. Despite what people might assume, Neil Hannon did not choose the title as a reference to the group's 1990 debut Fanfare for the Comic Muse. It's actually a quote from the book "A Room with a View" ("I have won a great victory for the comic muse").

On the 28th February 2007, Victory for the Comic Muse won the Choice Music Prize at a ceremony that took place in Dublin's Vicar St. venue. The Choice Music Prize is Ireland's equivalent to the Mercury Music Prize. The judging panel was made up of 12 representatives from the Irish music industry. The prize consisted of a trophy as well as a cheque for €10,000. The Divine Comedy's victory was unexpected as the album had received some lukewarm reviews and there was strong competition from the likes of The Immediate, Duke Special and Snow Patrol.

A special edition version of the album, officially available only on the first day of release, came with second DVD and an additional cardboard sleeve.
Neil Hannon (Vocals, Guitar, Piano)
John McCullagh (1989-91)
Kevin Traynor (1989-91)
Joby Talbot (Piano, 1993-2001)
Bryan Mills (Bass, 1993-2001)
Ivor Talbot (Guitar, 1993-2001)
Stuart Bates [aka "Pinkie"] (Hammond Organ, 1993-2001)
Miggy Barradas (Drums, 1993-2001)
Rob Farrer (Percussion, 1998-2001)
Chris Worsey
Grant Gordon
John Allen
Natalie Box
Simon Little


Трекер:  [ 14-Дек-2012 11:10 ]

  

Скачать .torrent

Размер .torrent файла 12 KB


Размер: 288 MB
Хэш (hash) релиза: 1875d29b2f592d3b425a11d49d080158c782b244

Еще никто не оставлял запись к записи скачать торрент The Divine Comedy - Victory for the Comic Muse - 2006, FLAC . Будь первым!

!Обратная связь