Скачать через торрент музыку Jethro Tull - All The Best бесплатно без регистрации torrent

Если у вас наблюдаются проблемы со скриншотами, переходом по ссылками, скачиванием торрентов - проблемы в блокировщике рекламы AdBlock. #хорошегоДня!


Статистика раздачи
Размер:  1.25 GB   |    Зарегистрирован:  4 года 8 месяцев   |    .torrent скачан:  54 раза   |   
Раздают:  1  
   
Загрузка...
 
Автор Сообщение

Galfimbul

avatar Galfimbul


Jethro Tull - All The Best Жанр: Progressive Rock
Страна-производитель диска: EU
Год издания диска: 2012
Издатель (лейбл): EMI
Номер по каталогу: 50999 6 23571 2 8
Страна: UK
Аудио кодек: FLAC
Тип рипа: image+.cue
Битрейт аудио: lossless
Продолжительность: Cd1 - 78:03;Cd2 - 78:40
Источник (релизер): dafnaplus
Наличие сканов в содержимом раздачи: Да
Трэклист:
Cd1:
01. A New Day Yesterday 4:09
02. Sweet Dream 4:04
03. Witches Promise 3:50
04. Teacher 3:48
05. A Song For Jeffrey 3:19
06. Bouree 3:45
07. Fat Man 2:51
08. My Sunday Feeling 3:41
09. Dharma For One 4:14
10. Nothing Is Easy 4:23
11. With You There To Help Me 6:18
12. To Cry You A Song 6:14
13. Aqualung 6:36
14. Cross-Eyed Mary 4:09
15. Wond'ring Aloud 1:48
16. Hymn 43 3:18
17. Thick As A Brick (Edit # 1) 3:03
18. Living In The (Slightly More Recent) Past (Live 1993) 3:43
19. Life Is A Long Song 3:17
20. Nursie 1:35
Cd2:
01. Locomotive Breath 4:41
02. Bungle In The Jungle 3:36
03. Skating Away (On The Thin Ice Of The New Day) 4:10
04. Minstrel In The Galery (Edit) 3:52
05. Salamander 2:51
06. Too Old To Rock.n.Roll,Too Young To Die (Edit) 3:55
07. Songs From The Wood 4:53
08. The Whistler 3:30
09. Heavy Horses (Edit) 3:21
10. Dun Ringil 2:40
11. Crossfire 3:52
12. Broadsword 5:00
13. Pussy Willow 3:53
14. Under Wraps #2 2:13
15. Jump Start 4:54
16. She Said She Was A Dancer 3:41
17. Kissing Willie 3:33
18. This Is Not Love 4:00
19. Roots To Branches 5:13
20. Bends Like A Willow 4:53
Exact Audio Copy V1.0 beta 3 from 29. August 2011

EAC extraction logfile from 10. December 2012, 18:45

Jethro Tull / All The Best (Disc 1)

Used drive : PLEXTOR DVDR PX-891SA Adapter: 1 ID: 0

Read mode : SecureUtilize accurate stream : YesDefeat audio cache : YesMake use of C2 pointers : No

Read offset correction : 6Overread into Lead-In and Lead-Out : NoFill up missing offset samples with silence : YesDelete leading and trailing silent blocks : NoNull samples used in CRC calculations : YesUsed interface : Native Win32 interface for Win NT & 2000

Used output format : User Defined EncoderSelected bitrate : 1024 kBit/sQuality : HighAdd ID3 tag : NoCommand line compressor : C:\Program Files\Exact Audio Copy\Flac\flac.exeAdditional command line options : -V -8 -T "Genre=%genre%" -T "Artist=%artist%" -T "Title=%title%" -T "Album=%albumtitle%" -T "Date=%year%" -T "Tracknumber=%tracknr%" -T "Comment=%comment%" %source%

TOC of the extracted CD

Track | Start | Length | Start sector | End sector --------------------------------------------------------- 1 | 0:00.00 | 4:08.74 | 0 | 18673 2 | 4:08.74 | 4:03.63 | 18674 | 36961 3 | 8:12.62 | 3:49.61 | 36962 | 54197 4 | 12:02.48 | 3:47.39 | 54198 | 71261 5 | 15:50.12 | 3:18.53 | 71262 | 86164 6 | 19:08.65 | 3:44.65 | 86165 | 103029 7 | 22:53.55 | 2:50.41 | 103030 | 115820 8 | 25:44.21 | 3:41.26 | 115821 | 132421 9 | 29:25.47 | 4:14.05 | 132422 | 151476 10 | 33:39.52 | 4:22.38 | 151477 | 171164 11 | 38:02.15 | 6:18.05 | 171165 | 199519 12 | 44:20.20 | 6:13.52 | 199520 | 227546 13 | 50:33.72 | 6:36.16 | 227547 | 257262 14 | 57:10.13 | 4:09.24 | 257263 | 275961 15 | 61:19.37 | 1:48.22 | 275962 | 284083 16 | 63:07.59 | 3:17.39 | 284084 | 298897 17 | 66:25.23 | 3:02.44 | 298898 | 312591 18 | 69:27.67 | 3:42.41 | 312592 | 329282 19 | 73:10.33 | 3:17.27 | 329283 | 344084 20 | 76:27.60 | 1:34.68 | 344085 | 351202

Range status and errors

Selected range

Filename H:\dafnaplus\Jethro Tull - All The Best\Cd1\Jethro Tull - All The Best (Disc 1).wav

Peak level 99.4 % Extraction speed 9.2 X Range quality 100.0 % Test CRC 06F11709 Copy CRC 06F11709 Copy OK

No errors occurred

AccurateRip summary

Track 1 cannot be verified as accurate (confidence 1) [D1284254], AccurateRip returned [8308C1AC] (AR v2)Track 2 cannot be verified as accurate (confidence 1) [3D84DE1F], AccurateRip returned [ED0FB12A] (AR v2)Track 3 cannot be verified as accurate (confidence 1) [A80F946A], AccurateRip returned [57147356] (AR v2)Track 4 cannot be verified as accurate (confidence 1) [12D88DF6], AccurateRip returned [2D10D8D5] (AR v2)Track 5 cannot be verified as accurate (confidence 1) [3A98DF9F], AccurateRip returned [5724254A] (AR v2)Track 6 cannot be verified as accurate (confidence 1) [6FCA8B8B], AccurateRip returned [35D2C4D4] (AR v2)Track 7 cannot be verified as accurate (confidence 1) [9FD30420], AccurateRip returned [7975A1B0] (AR v2)Track 8 cannot be verified as accurate (confidence 1) [C538663B], AccurateRip returned [DDFCCA54] (AR v2)Track 9 cannot be verified as accurate (confidence 1) [44530B48], AccurateRip returned [8FCC7981] (AR v2)Track 10 cannot be verified as accurate (confidence 1) [7EA7914D], AccurateRip returned [555C0FED] (AR v2)Track 11 cannot be verified as accurate (confidence 1) [DF865C3B], AccurateRip returned [805670C2] (AR v2)Track 12 cannot be verified as accurate (confidence 1) [07325A55], AccurateRip returned [3FDD4A42] (AR v2)Track 13 cannot be verified as accurate (confidence 1) [11FA6455], AccurateRip returned [E8224840] (AR v2)Track 14 cannot be verified as accurate (confidence 1) [51955F36], AccurateRip returned [D19C2D39] (AR v2)Track 15 cannot be verified as accurate (confidence 1) [C960D317], AccurateRip returned [46A622B8] (AR v2)Track 16 cannot be verified as accurate (confidence 1) [B7D059FD], AccurateRip returned [79155BE6] (AR v2)Track 17 cannot be verified as accurate (confidence 1) [2DCBE601], AccurateRip returned [DF2BB33C] (AR v2)Track 18 cannot be verified as accurate (confidence 1) [C1E01B8D], AccurateRip returned [DF2AC1D4] (AR v2)Track 19 cannot be verified as accurate (confidence 1) [9A895EAF], AccurateRip returned [FB36336B] (AR v2)Track 20 cannot be verified as accurate (confidence 1) [49F0C94E], AccurateRip returned [71DF5A55] (AR v2)

No tracks could be verified as accurateYou may have a different pressing from the one(s) in the database

End of status report

==== Log checksum 85C1E7840BF6E8FC3D430811625C522DF49966214765142FB0765B4CAD924A1F ====
Exact Audio Copy V1.0 beta 3 from 29. August 2011

EAC extraction logfile from 10. December 2012, 19:10

Jethro Tull / All The Best (Disc 2)

Used drive : PLEXTOR DVDR PX-891SA Adapter: 1 ID: 0

Read mode : SecureUtilize accurate stream : YesDefeat audio cache : YesMake use of C2 pointers : No

Read offset correction : 6Overread into Lead-In and Lead-Out : NoFill up missing offset samples with silence : YesDelete leading and trailing silent blocks : NoNull samples used in CRC calculations : YesUsed interface : Native Win32 interface for Win NT & 2000

Used output format : User Defined EncoderSelected bitrate : 1024 kBit/sQuality : HighAdd ID3 tag : NoCommand line compressor : C:\Program Files\Exact Audio Copy\Flac\flac.exeAdditional command line options : -V -8 -T "Genre=%genre%" -T "Artist=%artist%" -T "Title=%title%" -T "Album=%albumtitle%" -T "Date=%year%" -T "Tracknumber=%tracknr%" -T "Comment=%comment%" %source%

TOC of the extracted CD

Track | Start | Length | Start sector | End sector --------------------------------------------------------- 1 | 0:00.00 | 4:41.14 | 0 | 21088 2 | 4:41.14 | 3:35.52 | 21089 | 37265 3 | 8:16.66 | 4:10.25 | 37266 | 56040 4 | 12:27.16 | 3:51.55 | 56041 | 73420 5 | 16:18.71 | 2:50.55 | 73421 | 86225 6 | 19:09.51 | 3:55.06 | 86226 | 103856 7 | 23:04.57 | 4:52.53 | 103857 | 125809 8 | 27:57.35 | 3:30.28 | 125810 | 141587 9 | 31:27.63 | 3:20.61 | 141588 | 156648 10 | 34:48.49 | 2:40.26 | 156649 | 168674 11 | 37:29.00 | 3:52.36 | 168675 | 186110 12 | 41:21.36 | 4:59.50 | 186111 | 208585 13 | 46:21.11 | 3:52.41 | 208586 | 226026 14 | 50:13.52 | 2:13.23 | 226027 | 236024 15 | 52:27.00 | 4:53.51 | 236025 | 258050 16 | 57:20.51 | 3:41.23 | 258051 | 274648 17 | 61:01.74 | 3:33.06 | 274649 | 290629 18 | 64:35.05 | 3:59.38 | 290630 | 308592 19 | 68:34.43 | 5:12.41 | 308593 | 332033 20 | 73:47.09 | 4:53.08 | 332034 | 354016

Range status and errors

Selected range

Filename H:\dafnaplus\Jethro Tull - All The Best\Cd2\Jethro Tull - All The Best (Disc 2).wav

Peak level 99.3 % Extraction speed 9.3 X Range quality 100.0 % Test CRC B359F233 Copy CRC B359F233 Copy OK

No errors occurred

AccurateRip summary

Track 1 accurately ripped (confidence 1) [1321469D] (AR v1)Track 2 accurately ripped (confidence 1) [EE454364] (AR v1)Track 3 accurately ripped (confidence 1) [0EFD4CEA] (AR v1)Track 4 accurately ripped (confidence 1) [584BCDF4] (AR v1)Track 5 accurately ripped (confidence 1) [0549B97D] (AR v1)Track 6 accurately ripped (confidence 1) [E82A6A02] (AR v1)Track 7 accurately ripped (confidence 1) [D6986773] (AR v1)Track 8 accurately ripped (confidence 1) [DA9DC615] (AR v1)Track 9 accurately ripped (confidence 1) [379322B0] (AR v1)Track 10 accurately ripped (confidence 1) [FB632921] (AR v1)Track 11 accurately ripped (confidence 1) [C9D5601A] (AR v1)Track 12 accurately ripped (confidence 1) [CC16C62A] (AR v1)Track 13 accurately ripped (confidence 1) [CA93B766] (AR v1)Track 14 accurately ripped (confidence 1) [A674D86A] (AR v1)Track 15 accurately ripped (confidence 1) [E0907DE0] (AR v1)Track 16 accurately ripped (confidence 1) [B56EE208] (AR v1)Track 17 accurately ripped (confidence 1) [BED7C4F3] (AR v1)Track 18 accurately ripped (confidence 1) [28F8FC22] (AR v1)Track 19 accurately ripped (confidence 1) [7BB1973E] (AR v1)Track 20 accurately ripped (confidence 1) [1DCAF88B] (AR v1)

All tracks accurately ripped

End of status report

==== Log checksum DEDFA2DB9135D8BF37248FE1E5EBEAEC21193AF9370A97AD3A0F9925E379698C ====


Трекер:  [ 14-Дек-2012 10:37 ]

  

Скачать .torrent

Размер .torrent файла 14 KB


Размер: 1.25 GB
Хэш (hash) релиза: 966f7fbaaa943b3d9b7f166ef84be61b3f195d45

Торренты, похожие на Jethro Tull - All The Best скачать торрент

Форум Название Автор Размер S L Добавлен
Зарубежный Rock ·· (Progressive Rock) Jethro Tull - All The Best - 2012, (2 CD), MP3, 320 kbps Galfimbul 510639233487 MB 0 0 1356246840

10:14

23-Дек-12

Еще никто не оставлял запись к записи скачать торрент Jethro Tull - All The Best . Будь первым!

!Обратная связь