Скачать через торрент музыку Quiet Sun - Mainstream бесплатно без регистрации torrent

Если у вас наблюдаются проблемы со скриншотами, переходом по ссылками, скачиванием торрентов - проблемы в блокировщике рекламы AdBlock. #хорошегоДня!


Статистика раздачи
Размер:  264 MB   |    Зарегистрирован:  4 года 8 месяцев   |    .torrent скачан:  24 раза   |   
Раздают:  1  
   
Загрузка...
 
Автор Сообщение

Galfimbul

avatar Galfimbul


Quiet Sun - Mainstream

Жанр: Canterbury Scene
Год выпуска диска: 1975, 1988
Страна: UK
Производитель диска: Virgin / VJD-28057 / Japan
Аудио кодек: FLAC
Тип рипа: image+.cue
Битрейт аудио: lossless
Продолжительность: 39:23
Наличие сканов в содержимом раздачи:

Трэклист:
01. Sol Caliente (7:34)
02. Trumpets With Motherhood (1:47)
03. Bargain Classics (5:48)
04. R.F.D. (3:23)
05. Mummy Was An Asteroid, Daddy Was A Small Non-Stick Kitchen Utensil (6:00)
06. Trot (5:18)
07. RongWrong (9:34)

Состав:
- Charles Hayward / drums, percussion, keyboards & voices
- Dave Jarrett / keyboards
- Phil Manzanera / guitars, keyboards
- Bill MacCormick / bass guitars & voices

With:
- Brian Eno / synthesizers, treatments and oblique strategies
- Ian MacCormick / voices

Доп. информация: http://www.progarchives.com/artist.asp?id=1813
Exact Audio Copy V1.0 beta 3 from 29. August 2011

EAC extraction logfile from 11. December 2012, 7:32

Quiet Sun / Mainstream

Used drive : TEAC CD-W552E Adapter: 1 ID: 0

Read mode : SecureUtilize accurate stream : YesDefeat audio cache : YesMake use of C2 pointers : No

Read offset correction : 6Overread into Lead-In and Lead-Out : NoFill up missing offset samples with silence : YesDelete leading and trailing silent blocks : NoNull samples used in CRC calculations : YesUsed interface : Installed external ASPI interface

Used output format : User Defined EncoderSelected bitrate : 32 kBit/sQuality : LowAdd ID3 tag : NoCommand line compressor : C:\Program Files\Exact Audio Copy\FLAC\FLAC.EXEAdditional command line options : -8 -V -T "ARTIST=%artist%" -T "ALBUM=%albumtitle%" -T "DATE=%year%" -T "GENRE=%genre%" -T "COMMENT=EAC FLAC -8" %source%

TOC of the extracted CD

Track | Start | Length | Start sector | End sector --------------------------------------------------------- 1 | 0:00.37 | 7:35.20 | 37 | 34181 2 | 7:35.57 | 1:47.25 | 34182 | 42231 3 | 9:23.07 | 5:48.30 | 42232 | 68361 4 | 15:11.37 | 3:23.10 | 68362 | 83596 5 | 18:34.47 | 6:01.10 | 83597 | 110681 6 | 24:35.57 | 5:18.43 | 110682 | 134574 7 | 29:54.25 | 9:28.62 | 134575 | 177236

Range status and errors

Selected range

Filename E:\Muzons\Quiet Sun\Quiet Sun - Mainstream (1975) {VJD-28057 Japan}\Quiet Sun - Mainstream.wav

Peak level 100.0 % Extraction speed 7.4 X Range quality 99.9 % Test CRC 2B165732 Copy CRC 2B165732 Copy OK

No errors occurred

AccurateRip summary

Track 1 accurately ripped (confidence 7) [1BDCFB9F] (AR v1)Track 2 accurately ripped (confidence 7) [68C05EC4] (AR v1)Track 3 accurately ripped (confidence 7) [8D6F0318] (AR v1)Track 4 accurately ripped (confidence 7) [8B37D6E6] (AR v1)Track 5 accurately ripped (confidence 7) [AE32286B] (AR v1)Track 6 accurately ripped (confidence 7) [375F641F] (AR v1)Track 7 accurately ripped (confidence 7) [FF50E571] (AR v1)

All tracks accurately ripped

End of status report

==== Log checksum CA934BBE2D7C5ED25DBF5D47CC4E9921E83DC8BBE05E0DF4FDEC7EAFB89BD6F8 ====
REM GENRE "Progressive Rock"REM DATE 1975REM DISCID 62093B07REM COMMENT "ExactAudioCopy v1.0b3"PERFORMER "Quiet Sun"TITLE "Mainstream"FILE "Quiet Sun - Mainstream.flac" WAVE TRACK 01 AUDIO TITLE "Sol Caliente" PERFORMER "Quiet Sun" INDEX 00 00:00:00 INDEX 01 00:00:37 TRACK 02 AUDIO TITLE "Trumpets With Motherhood" PERFORMER "Quiet Sun" INDEX 01 07:35:57 TRACK 03 AUDIO TITLE "Bargain Classics" PERFORMER "Quiet Sun" INDEX 01 09:23:07 TRACK 04 AUDIO TITLE "R.F.D" PERFORMER "Quiet Sun" INDEX 01 15:11:37 TRACK 05 AUDIO TITLE "Mummy Was An Asteroid, Daddy Was A Small Non-Stick Kitchen Utensil" PERFORMER "Quiet Sun" INDEX 00 18:33:57 INDEX 01 18:34:47 TRACK 06 AUDIO TITLE "Trot" PERFORMER "Quiet Sun" INDEX 01 24:35:57 TRACK 07 AUDIO TITLE "Rongwrong" PERFORMER "Quiet Sun" INDEX 00 29:50:07 INDEX 01 29:54:25
[CUETools log; Date: 11.12.2012 8:00:05; Version: 2.1.4]Pregap length 00:00:37.[CTDB TOCID: yUjpc6UJo6w6_Ej0dH.Kn8pNPEA-] found.Track | CTDB Status 1 | (1/1) Accurately ripped 2 | (1/1) Accurately ripped 3 | (1/1) Accurately ripped 4 | (1/1) Accurately ripped 5 | (1/1) Accurately ripped 6 | (1/1) Accurately ripped 7 | (1/1) Accurately ripped[AccurateRip ID: 0009ee98-003bab8f-62093b07] found.Track [ CRC | V2 ] Status 01 [1bdcfb9f|5ede6258] (07+00/13) Accurately ripped 02 [68c05ec4|7d9acbd9] (07+00/13) Accurately ripped 03 [8d6f0318|b41da219] (07+00/13) Accurately ripped 04 [8b37d6e6|3a548302] (07+00/13) Accurately ripped 05 [ae32286b|adc83e29] (07+00/13) Accurately ripped 06 [375f641f|20a93fd1] (07+00/13) Accurately ripped 07 [ff50e571|f917a136] (07+00/11) Accurately rippedOffsetted by -271: 01 [45380861] (04/13) Accurately ripped 02 [c805100f] (04/13) Accurately ripped 03 [d2063bf8] (04/13) Accurately ripped 04 [51c09bb6] (04/13) Accurately ripped 05 [7281383e] (04/13) Accurately ripped 06 [88317fb1] (04/13) Accurately ripped 07 [0a6a9d1c] (04/11) Accurately rippedOffsetted by -5: 01 [d35dc185] (02/13) Accurately ripped 02 [c12d2a6a] (02/13) Accurately ripped 03 [efd4ec76] (02/13) Accurately ripped 04 [c801dcbf] (02/13) Accurately ripped 05 [756954e7] (02/13) Accurately ripped 06 [c8a08921] (02/13) Accurately ripped 07 [550063ea] (00/11) No match (V2 was not tested)

Track Peak [ CRC32 ] [W/O NULL] [ LOG ] -- 100,0 [2B165732] [222AC76F] CRC32 01 100,0 [D60F4FFD] [6405B7C1] 02 60,2 [8F585F72] [82BABCDE] 03 100,0 [AB16EB6A] [25EA1B93] 04 40,8 [CD459218] [E16047ED] 05 100,0 [87FEFE12] [984CFCB1] 06 98,0 [5EDC4C53] [73D08445] 07 99,9 [F59E6106] [4BCF1AE7]
источник: erro

Трекер:  [ 14-Дек-2012 10:37 ]

  

Скачать .torrent

Размер .torrent файла 11 KB


Размер: 264 MB
Хэш (hash) релиза: 11685bff88d59315694539a5631d5d2043d30cff

Торренты, похожие на Quiet Sun - Mainstream скачать торрент

Форум Название Автор Размер S L Добавлен
Rосk | Mеtаl | Аltеrnаtivе, Рunk, Indереndеnt (mр3) ·· (Progressive Rock) Quiet Sun - Mainstream [Remastered] - 1975 (2011), MP3, 320 kbps Polarnik 186232827178 MB 0 0 1379903673

05:34

23-Сен-13

Rосk | Mеtаl | Аltеrnаtivе, Рunk, Indереndеnt (losslеss) ·· (Progressive Rock) Quiet Sun - Mainstream (1975) - 2011 (with Bonus Tracks), FLAC (tracks+.cue), lossless Galfimbul 445255062425 MB 0 0 1375129848

23:30

29-Июл-13

Еще никто не оставлял запись к записи скачать торрент Quiet Sun - Mainstream . Будь первым!

!Обратная связь