Скачать через торрент музыку Ananke - Malachity бесплатно без регистрации torrent

Если у вас наблюдаются проблемы со скриншотами, переходом по ссылками, скачиванием торрентов - проблемы в блокировщике рекламы AdBlock. #хорошегоДня!


Статистика раздачи
Размер:  384 MB   |    Зарегистрирован:  4 года 8 месяцев   |    .torrent скачан:  16 раз   |   
Раздают:  1  
   
Загрузка...
 
Автор Сообщение

Galfimbul

avatar Galfimbul


Ananke - Malachity

Жанр: Neo Progressive
Год выпуска диска: 2010
Страна: Poland
Label: Lynx music
Catalog Nr.: LM 59 CD
Аудио кодек: FLAC
Тип рипа: image+.cue (test&copy)
Битрейт аудио: lossless
Продолжительность: 49:42
Источник: свой рип

Трэклист:

1. Wstyd (4:43)
2. Amidalla (3:19)
3. Mayday (3:24)
4. Perfumy (5:33)
5. Prana (3:35)
6. Asyż (7:41)
7. Akasha (4:35)
8. Latawce (4:20)
9. Talisman (4:57)
10. Mojra (6:52)

Total time: 49:42

Музыканты:

- Adam Łassa / vocals
- Krzysztof Pacholski / keyboards
- Karol Szolz / guitars
- Bartek Styś / bass
- Wiktor Wyka / drums

Guest:
- Łukasz Święch / 12-string acoustic guitar (tracks: 2, 9)

Об альбоме: Дебютный (теперь уже не единственный) альбом очень интересной польской команды. Рекомендуется всем, кого не пугает польскоязычный вокал.
Второй релиз проекта состоялся в этом году. Возможно, кто-то уже приобрёл и поделится качественным лосслесс рипом. Я, в этом году, уже не смогу этого сделать.
Exact Audio Copy V1.0 beta 3 from 29. August 2011

EAC extraction logfile from 25. November 2012, 13:09

Ananke / Malachity

Used drive : ASUS DRW-24B1LT Adapter: 4 ID: 0

Read mode : Secure
Utilize accurate stream : Yes
Defeat audio cache : Yes
Make use of C2 pointers : No

Read offset correction : 6
Overread into Lead-In and Lead-Out : No
Fill up missing offset samples with silence : Yes
Delete leading and trailing silent blocks : No
Null samples used in CRC calculations : Yes
Used interface : Native Win32 interface for Win NT & 2000

Used output format : User Defined Encoder
Selected bitrate : 1024 kBit/s
Quality : High
Add ID3 tag : Yes
Command line compressor : C:\Program Files (x86)\FLAC\flac.exe
Additional command line options : -6 -V -T "ARTIST=%artist%" -T "TITLE=%title%" -T "ALBUM=%albumtitle%" -T "DATE=%year%" -T "TRACKNUMBER=%tracknr%" -T "GENRE=%genre%" -T "COMMENT=%comment%" %source% -o %dest%

TOC of the extracted CD

Track | Start | Length | Start sector | End sector
---------------------------------------------------------
1 | 0:00.00 | 4:48.54 | 0 | 21653
2 | 4:48.54 | 3:23.14 | 21654 | 36892
3 | 8:11.68 | 3:28.50 | 36893 | 52542
4 | 11:40.43 | 5:37.12 | 52543 | 77829
5 | 17:17.55 | 3:40.14 | 77830 | 94343
6 | 20:57.69 | 7:45.49 | 94344 | 129267
7 | 28:43.43 | 4:39.06 | 129268 | 150198
8 | 33:22.49 | 4:24.29 | 150199 | 170027
9 | 37:47.03 | 5:03.26 | 170028 | 192778
10 | 42:50.29 | 6:52.00 | 192779 | 223678

Range status and errors

Selected range

Filename Y:\EAC\wurensh\Ananke\Ananke - Malachity.wav

Peak level 98.9 %
Extraction speed 9.0 X
Range quality 100.0 %
Test CRC 2B37ED7E
Copy CRC 2B37ED7E
Copy OK

No errors occurred

AccurateRip summary

Track 1 not present in database
Track 2 not present in database
Track 3 not present in database
Track 4 not present in database
Track 5 not present in database
Track 6 not present in database
Track 7 not present in database
Track 8 not present in database
Track 9 not present in database
Track 10 not present in database

None of the tracks are present in the AccurateRip database

End of status report
Коврики 300dpi в комплекте.
Progarchives info

Трекер:  [ 14-Дек-2012 10:37 ]

  

Скачать .torrent

Размер .torrent файла 16 KB


Размер: 384 MB
Хэш (hash) релиза: 6f43254565f29cd12e485b8a1c68c4e51a7f20ed

Еще никто не оставлял запись к записи скачать торрент Ananke - Malachity . Будь первым!

!Обратная связь